Театральные встречи. Анатолий Папанов (Ольга Трегубова) [2012 г., Театральные встречи, SATRip]


Статистика раздачи [Обновить пиров]
Размер:  699 MB   |    Зарегистрирован:  1 год   |    Скачан:  0 раз

Полного источника не было: Никогда

 
   
 
 
 

[Цитировать]

Театральные встречи. Анатолий ПапановК 90-летию со дня рождения народного артиста СССР Анатолия Папанова (1922 - 1987),
легендарного актера театра и кино, народного артиста СССР.

Год выпуска: 2012.
Жанр: Театральные встречи.
Продолжительность: 00:46:32.
Режиссёр телеверсии: Ольга Трегубова.
В передаче принимают участие:
Вдова актера заслуженная артистка России Надежда Каратаева, народная артистка РСФСР Зоя Зелинская, заслуженный артист России Виктор Рухманов, а также театральный критик Борис Поюровский.
Описание:
Программа из цикла "Театральные встречи"
Вечер, посвящённый 90-летию со дня рождения народного артиста СССР Анатолия Папанова.
9 ноября 2012 г. в филиале Театрального музея им. А. А. Бахрушина - музее-квартире В. Н. Плучека состоялся вечер, посвящённый 90-летию со дня рождения народного артиста СССР Анатолия Папанова. В музее в этот день собрались самые близкие Анатолию Дмитриевичу люди, актёры театра Сатиры заслуженная артистка России Надежда Каратаева, они были женаты с Анатолием Папановым более сорока лет, и друзья - народная артистка РСФСР Зоя Зелинская, заслуженный артист РФ Виктор Рухманов, а также театральный критик Борис Поюровский.

Дополнительная информация:
Страна: Россия .
Выпущено: Театральный музей им. А. А. Бахрушина, © ООО "Альма Матер".
Ведущий оператор: Леонид Алексеев.

Папанов Анатолий Дмитриевич

Папанов Анатолий Дмитриевич
Родился 31 октября 1922 года в Вязьме (Смоленская область), в простой рабочей семье.
Заслуженный артист РСФСР (30.09.1958).
Народный артист РСФСР (17.11.1966).
Народный артист СССР (5.10.1973).
Отец — Дмитрий Филиппович Папанов, мать — полька Елена Болеславовна Росковская.
В конце 1920-х годов семья Папановых переехала в Москву, в район Малые Кочки, и Анатолий пошёл в первый класс.
После окончания школы в 1939 году Папанов устроился литейщиком в ремонтные мастерские 2-го Московского шарикоподшипникового завода.
Участвовал в художественной самодеятельности — в театральной студии клуба завода "Каучук".
Когда началась война ушёл на фронт, где был тяжело ранен в ногу на Юго-западном фронте. После чего был демобилизован и осенью 1942 года прибыл инвалидом третьей группы домой, в Москву к родителям.
Поступил в Государственный институт театрального искусства имени А. В. Луначарского, на актёрский факультет.
В 1946 году, после окончания института, вместе со своим курсом отправился создавать новый театр в Клайпеде, где им была сыграна первая театральная роль Сергея Тюленина в поставленном к тридцатилетию годовщины Октября, спектакле "Молодая гвардия".
С 1948 года — актёр Театра Сатиры в Москве.
В 1987 году — поставил спектакль по пьесе Максима Горького «Последние».
В 1967 году впервые озвучил Волка в знаменитом мультсериале "Ну, погоди!" и стал кумиром многих поколений ребятишек.
3 августа 1987 года — последний кадр в жизни актёра на съёмках фильма "Холодное лето 53-го" в Карелии. Вечером того же дня Папанов уехал в Москву.
Анатолий Дмитриевич скончался 5 августа 1987 года в своей московской квартире от остановки сердца, принимая холодный душ. Похороны актёра состоялись 11 августа на Новодевичьем кладбище в Москве (участок № 10).
Жена — заслуженная артистка РСФСР Надежда Каратаева (род. 1924).
Дочь — актриса Елена Папанова (род. 1954).
Релиз
Огромное спасибо Доброму человеку за предоставленый материал!!!
Качество видео:...SATRip
Формат:.................AVI
Видео:..704x528 (1.33:1), 25 fps, XviD MPEG-4 ~1897 kbps avg, 0.20 bit/pixel
Аудио:..48 kHz, AC3 Dolby Digital, 2/0 (L,R) ch, ~192 kbps

Отчет MI

General
Complete name : Teatral'nye.vstrechi.Anatlij.Papanov.2012.XviD.SATRip.fenixclub.avi
Format : AVI
Format/Info : Audio Video Interleave
File size : 699 MiB
Duration : 46mn 32s
Overall bit rate : 2 099 Kbps
Video
ID : 0
Format : MPEG-4 Visual
Format profile : Advanced Simple@L5
Format settings, BVOP : 1
Format settings, QPel : No
Format settings, GMC : No warppoints
Format settings, Matrix : Default (MPEG)
Codec ID : XVID
Codec ID/Hint : XviD
Duration : 46mn 32s
Bit rate : 1 898 Kbps
Width : 704 pixels
Height : 528 pixels
Display aspect ratio : 4:3
Frame rate : 25.000 fps
Color space : YUV
Chroma subsampling : 4:2:0
Bit depth : 1 bit
Scan type : Progressive
Compression mode : Lossy
Bits/(Pixel*Frame) : 0.204
Stream size : 632 MiB (90%)
Writing library : XviD 1.2.1 (UTC 2008-12-04)
Audio
ID : 1
Format : MPEG Audio
Format version : Version 1
Format profile : Layer 3
Mode : Joint stereo
Mode extension : MS Stereo
Codec ID : 55
Codec ID/Hint : MP3
Duration : 46mn 31s
Source duration : 46mn 31s
Bit rate mode : Constant
Bit rate : 192 Kbps
Channel(s) : 2 channels
Sampling rate : 48.0 KHz
Compression mode : Lossy
Stream size : 63.9 MiB (9%)
Alignment : Aligned on interleaves
Interleave, duration : 40 ms (1.00 video frame)
Writing library : LAME3.99.5UUU0і=gы

Скриншоты

Альтернативный хост

[teatrix.ru].t11062.torrent 
Торрент: Зарегистрирован [ 2015-12-07 05:05 ] · C7C1A09A14C29919BB50EA9CBE4CA55089FD2F9F

Скачать .torrent

Скачать

14 KB

Статус: проверено
Скачан: 0 раз
Размер: 699 MB
terms.php



Быстрый ответ

Имя:

      
Для отправки сообщений необходимо включить JavaScript
Показать сообщения:    

Текущее время: 09-Дек 18:34

Часовой пояс: UTC + 3


Вы можете начинать темы
Вы можете отвечать на сообщения
Вы не можете редактировать свои сообщения
Вы не можете удалять свои сообщения
Вы не можете голосовать в опросах
Вы не можете прикреплять файлы к сообщениям
Вы можете скачивать файлы