Юбилейный вечер Галины Волчек [2013, Россия, Концерт, SATRip] Современник


Статистика раздачи [Обновить пиров]
Размер:  1015 MB   |    Зарегистрирован:  1 год   |    Скачан:  1 раз

Полного источника не было: 8 месяцев 30 дней

 
   
 
 
 

[Цитировать]

Юбилейный вечер Галины Волчек
Название театра: Современник
Страна: Россия
Жанр: Концерт
Год выпуска: 2013
Продолжительность: 01:26:40
Перевод: Не требуется
Язык: Русский
Cубтитры: нет
Режиссёр: Галина Волчек
В ролях: Артисты театра
Описание: Ее называют лицом русского театра, бескомпромиссным режиссером, опорой для друзей, кумиром зрителей. 19 декабря у Галины Волчек юбилей. В этот день поздравить Галину Борисовну соберется весь цвет театральной Москвы. Татьяна Тарасова: "На многих ее спектаклях я проливала горькие слезы и заставала себя между сиденьями в слезах, и благодарна за эти потрясения".
Семпл: http://multi-up.com/934588
Качество видео: SATRip
Формат видео: AVI
Видео: 704x400 (1.76:1), 25 fps, XviD build 63, 1499 kbps avg, 0.21 bit/pixel
Аудио: 48 kHz, MPEG Layer 3, 2 ch, 128.00 kbps avg

MediaInfo

Jubilejnyj.vecher.Galiny.Volchek.avi
Format : AVI
Format/Info : Audio Video Interleave
File size : 1 015 MiB
Duration : 1h 26mn
Overall bit rate : 1 638 Kbps
Writing application : VirtualDubMod 1.5.10.3 | www.virtualdub-fr.org || (build 2550/release)
Writing library : VirtualDubMod build 2550/release
Video #0
ID : 0
Format : MPEG-4 Visual
Format profile : Advanced Simple@L5
Format settings, BVOP : 2
Format settings, QPel : No
Format settings, GMC : No warppoints
Format settings, Matrix : Default (MPEG)
Codec ID : XVID
Codec ID/Hint : XviD
Duration : 1h 26mn
Bit rate : 1 500 Kbps
Width : 704 pixels
Height : 400 pixels
Display aspect ratio : 16:9
Frame rate : 25.000 fps
Color space : YUV
Chroma subsampling : 4:2:0
Bit depth : 8 bits
Scan type : Progressive
Compression mode : Lossy
Bits/(Pixel*Frame) : 0.213
Stream size : 930 MiB (92%)
Writing library : XviD 63
Audio #1
ID : 1
Format : MPEG Audio
Format version : Version 1
Format profile : Layer 3
Mode : Joint stereo
Mode extension : MS Stereo
Codec ID : 55
Codec ID/Hint : MP3
Duration : 1h 26mn
Bit rate mode : Constant
Bit rate : 128 Kbps
Channel(s) : 2 channels
Sampling rate : 48.0 KHz
Compression mode : Lossy
Stream size : 79.4 MiB (8%)
Alignment : Aligned on interleaves
Interleave, duration : 40 ms (1.00 video frame)
Interleave, preload duration : 504 ms
Writing library : LAME3.98r
Encoding settings : -m j -V 4 -q 2 -lowpass 17 -b 128

Скриншот с названием постановки

Скриншоты

[teatrix.ru].t11066.torrent 
Торрент: Зарегистрирован [ 2015-12-07 05:05 ] · 69C15CBAC1AAAD8DDA928720AD632C833BF2C1A2

Скачать .torrent

Скачать

20 KB

Статус: проверено
Скачан: 1 раз
Размер: 1015 MB
terms.php



Быстрый ответ

Имя:

      
Для отправки сообщений необходимо включить JavaScript
Показать сообщения:    

Текущее время: 07-Дек 11:40

Часовой пояс: UTC + 3


Вы можете начинать темы
Вы можете отвечать на сообщения
Вы не можете редактировать свои сообщения
Вы не можете удалять свои сообщения
Вы не можете голосовать в опросах
Вы не можете прикреплять файлы к сообщениям
Вы можете скачивать файлы