Дом, который построил Марк [2013, Россия, Капустник, HDTVRip]


Статистика раздачи [Обновить пиров]
Размер:  1.72 GB   |    Зарегистрирован:  11 месяцев   |    Скачан:  1 раз

Полного источника не было: 8 месяцев 28 дней

 
   
 
 
 

[Цитировать]

Дом, который построил Марк
Название театра: Ленком
Страна: Россия
Жанр: Капустник
Год выпуска: 2013
Продолжительность: 01:50:29
Перевод: Не требуется
Язык: Русский
Cубтитры: нет
Оригинальная аудиодорожка: русский
Описание: 13 октября свое 80-летие отмечает величайший режиссер кино и театра, художественный руководитель московского театра "Ленком" - Марк Анатольевич Захаров. Марк Захаров говорит, что не любит юбилеи, но столь примечательная дата, безусловно, не может остаться незамеченной для поклонников творчества Марка Анатольевича, его коллег и актеров, которые хоть единожды с ним работали или работают до сих пор под его руководством. Режиссер руководит театром уже 40 лет, поэтому поздравить его решили здесь же. В гости к юбиляру придут все театры Москвы, а подарком будет "капустник".
Источник: собственный рип
Доп. информация: Релиз -

Рип чистый. Без посторонних надписей. Выкладывается как есть.
Качество: HDTVRip
Формат: AVI
Видео кодек: XVID
Аудио кодек: MP3
Видео: 720x400 (16:9) 25.00fps 2 100 Kbps, 0.292 bit/pixel
Аудио: MPEG Audio, 48000Hz, 2 channels, 192 Кбит/сек

Скриншоты


Скринлист

MI

GeneralComplete name : D:\Выкладка\Дом, который построил Марк (2013, Театр, Капустник, HDTVRip) (MYDIMKA).aviFormat : AVIFormat/Info : Audio Video InterleaveFile size : 1.72 GiBDuration : 1h 50mnOverall bit rate : 2 224 KbpsWriting application : VirtualDubMod 1.5.10.3 | www.virtualdub-fr.org || (build 2550/release)Writing library : VirtualDubMod build 2550/release
VideoID : 0Format : MPEG-4 VisualFormat profile : Advanced Simple@L5Format settings, BVOP : 2Format settings, QPel : NoFormat settings, GMC : No warppointsFormat settings, Matrix : Default (H.263)Codec ID : XVIDCodec ID/Hint : XviDDuration : 1h 50mnBit rate : 2 022 KbpsWidth : 720 pixelsHeight : 400 pixelsDisplay aspect ratio : 16:9Frame rate : 25.000 fpsColor space : YUVChroma subsampling : 4:2:0Bit depth : 8 bitsScan type : ProgressiveCompression mode : LossyBits/(Pixel*Frame) : 0.281Stream size : 1.56 GiB (91%)Writing library : XviD 1.2.1 (UTC 2008-12-04)
AudioID : 1Format : MPEG AudioFormat version : Version 1Format profile : Layer 3Codec ID : 55Codec ID/Hint : MP3Duration : 1h 50mnBit rate mode : ConstantBit rate : 192 KbpsChannel count : 2 channelsSampling rate : 48.0 KHzCompression mode : LossyStream size : 152 MiB (9%)Alignment : Aligned on interleavesInterleave, duration : 40 ms (1.00 video frame)Interleave, preload duration : 504 msWriting library : LAME3.99rEncoding settings : -m s -V 4 -q 2 -lowpass 18.6 -b 192
[teatrix.ru].t11067.torrent 
Торрент: Зарегистрирован [ 2015-12-07 05:05 ] · 06AB39985087FFE0A0A91750A08EE9187C30ADCB

Скачать .torrent

Скачать

35 KB

Статус: проверено
Скачан: 1 раз
Размер: 1.72 GB
terms.php



Быстрый ответ

Имя:

      
Для отправки сообщений необходимо включить JavaScript
Показать сообщения:    

Текущее время: 05-Дек 03:29

Часовой пояс: UTC + 3


Вы можете начинать темы
Вы можете отвечать на сообщения
Вы не можете редактировать свои сообщения
Вы не можете удалять свои сообщения
Вы не можете голосовать в опросах
Вы не можете прикреплять файлы к сообщениям
Вы можете скачивать файлы