Дорогая наша Наташа... Вечер-посвящение Наталье Гундаревой (Сергей Арцибашев, Ольга Трегубова) [2006, телеверсия вечера, DVB]


Статистика раздачи [Обновить пиров]
Размер:  2.48 GB   |    Зарегистрирован:  11 месяцев   |    Скачан:  0 раз

Полного источника не было: Никогда

 
   
 
 
 

[Цитировать]

Дорогая наша Наташа...- Страна: Россия
Жанр: телеверсия вечера
Год выпуска: 2006
Продолжительность: 01:09:39-Режиссёр-постановщик: Сергей Арцибашев
Режиссёр телеверсии: Ольга Трегубова-Описание: Вечер-посвящение Наталье Гундаревой в Московском академическом театре им. Вл. Маяковского.
В телеверсии вечера участвуют: Карен Шахназаров, Михаил Швыдкой, Борис Поюровский, Виталий Вульф, Александр Лазарев, Леонид Ярмольник, Сергей Шакуров, Александр Панкратов-Черный, Михаил Филиппов, Игорь Костолевский, Светлана Немоляева, Валентина Талызина, Евгения Симонова, Зураб Соткилава, Анна Антоничева, "Вивальди-оркестр" п/р Светланы Безродной, Владимир Спиваков и солисты Национального филармонического оркестра России, ансамбль "Березка".
Ведущий - Сергей Арцибашев.-Качество: DVB
Формат: MPEG-PS
Видео: MPEG-2, 720x576@768x576 (4/3), 25 fps, ~4808 Kbps (0.464 bit/pixel)
Аудио: MP2, 48 KHz, 2 ch, 192 Kbps-

MediaInfo

General
Complete name : ...\Дорогая наша Наташа... Вечер-посвящение Наталье Гундаревой (2006) [DVB].mpg
Format : MPEG-PS
File size : 2.48 GiB
Duration : 1h 9mn
Overall bit rate mode : Variable
Overall bit rate : 5 101 Kbps
Video
ID : 224 (0xE0)
Format : MPEG Video
Format version : Version 2
Format profile : Main@Main
Format settings, BVOP : Yes
Format settings, Matrix : Custom
Format settings, GOP : M=3, N=36
Duration : 1h 9mn
Bit rate mode : Variable
Bit rate : 4 808 Kbps
Maximum bit rate : 15.0 Mbps
Width : 720 pixels
Height : 576 pixels
Display aspect ratio : 4:3
Frame rate : 25.000 fps
Standard : PAL
Color space : YUV
Chroma subsampling : 4:2:0
Bit depth : 8 bits
Scan type : Interlaced
Scan order : Top Field First
Compression mode : Lossy
Bits/(Pixel*Frame) : 0.464
Time code of first frame : 00:00:00:00
Time code source : Group of pictures header
Stream size : 2.34 GiB (94%)
Audio
ID : 192 (0xC0)
Format : MPEG Audio
Format version : Version 1
Format profile : Layer 2
Duration : 1h 9mn
Bit rate mode : Constant
Bit rate : 192 Kbps
Channel(s) : 2 channels
Sampling rate : 48.0 KHz
Compression mode : Lossy
Delay relative to video : -80ms
Stream size : 95.6 MiB (4%)
[teatrix.ru].t11068.torrent 
Торрент: Зарегистрирован [ 2015-12-07 05:05 ] · EAB2A280EAD9EF913103AB45DC76E335CF564FD2

Скачать .torrent

Скачать

13 KB

Статус: проверено
Скачан: 0 раз
Размер: 2.48 GB
terms.php



Быстрый ответ

Имя:

      
Для отправки сообщений необходимо включить JavaScript
Показать сообщения:    

Текущее время: 04-Дек 06:48

Часовой пояс: UTC + 3


Вы можете начинать темы
Вы можете отвечать на сообщения
Вы не можете редактировать свои сообщения
Вы не можете удалять свои сообщения
Вы не можете голосовать в опросах
Вы не можете прикреплять файлы к сообщениям
Вы можете скачивать файлы