Дом актера. Верю. К 150-летию К.С.Станиславского (Владимир Иванов, Ольга Тутушкина) [2013 г., Капустник, SATRip] Центральный дом актера им. А.А.Яблочкиной


Статистика раздачи [Обновить пиров]
Размер:  707 MB   |    Зарегистрирован:  11 месяцев 27 дней   |    Скачан:  0 раз

Полного источника не было: Никогда

 
   
 
 
 

[Цитировать]

Дом актера. Верю. К 150-летию К.С.Станиславского
Центральный дом актера им. А.А.Яблочкиной.
Год выпуска: 2013.
Страна: Россия .
Выпущено: ГТРК "Культура".
Жанр: Капустник.
Продолжительность: 00:54:01.
Режиссер: Владимир Иванов.
Авторы: Вадим Жук, Сергей Плотов.
Организатор: Леда Бардаш.
Художник: Максим Обрезков.
Режиссер телеверсии: Ольга Тутушкина.
Оператор-постановщик: Александр Петровский.
Участвуют:
Александр Ширвиндт, Марк Захаров, Игорь Золотовицкий, Александр Жигалкин, Элина Быстрицкая, Эдуард Радзюкевич, Юрий Васильев, Мария Аронова, Юлия Рутберг, Владимир Иванов, Андрей Ургант, Андрей Максимков, Сергей Шустицкий, Валерий Яременко, Юрий Васильев, Борис Львович, Эльдар Трамов, Антон Кукушкин, Марина Есипенко, Елена Сотникова, Максим Перебейнос, Дмитрий Хромов, Марина Калинина, Майя Барковская, Елена Сосульникова, Санкт-Петербургский театр пластики рук "Hand Made", центр эстетики и красоты "Катюша".
Описание:
Вечер в Доме актера, посвященный 150-летию со дня рождения К.С. Станиславского.
Особым подарком для зрителей стало видеоприветствие Ольги Коляденко - единственной живой ученицы Станиславского, которой исполнилось 104 года.

Дополнительная информация:
Релиз
Огромное спасибо SergCsc за предоставленый материал!!!
Качество видео:...SATRip
Формат:.................AVI
Видео:..688x384 (1.79:1), 25 fps, XviD MPEG-4 ~1691 kbps avg, 0.26 bit/pixel
Аудио:..48 kHz, MPEG Layer 3, 2 ch, ~128.00 kbps avg

Отчет Media Info

Общее
Полное имя : Dom.aktera.Stanislavskij.2013.XviD.TVRip.fenixclub.avi
Формат : AVI
Формат/Информация : Audio Video Interleave
Размер файла : 707 Мбайт
Продолжительность : 54 м.
Общий поток : 1829 Кбит/сек
Программа кодирования : VirtualDubModRus 1.5.10.2 (build 2542/release)
Библиотека кодирования : VirtualDubMod build 2542/release
Видео
Идентификатор : 0
Формат : MPEG-4 Visual
Профиль формата : Advanced Simple@L5
Параметр BVOP формата : 2
Параметр QPel формата : Нет
Параметр GMC формата : Без точки перехода
Параметр матрицы формата : Default (MPEG)
Режим смешивания : Сжатый битовый поток
Идентификатор кодека : XVID
Идентификатор кодека/Подсказка : XviD
Продолжительность : 54 м.
Битрейт : 1692 Кбит/сек
Ширина : 688 пикселей
Высота : 384 пикселя
Соотношение сторон : 16:9
Частота кадров : 25,000 кадров/сек
Цветовое пространство : YUV
Субдискретизация насыщенности : 4:2:0
Битовая глубина : 8 бит
Тип развёртки : Прогрессивная
Метод сжатия : С потерями
Бит/(Пиксели*Кадры) : 0.256
Размер потока : 654 Мбайт (92%)
Библиотека кодирования : XviD 1.2.1 (UTC 2008-12-04)
Аудио
Идентификатор : 1
Формат : MPEG Audio
Версия формата : Version 1
Профиль формата : Layer 3
Идентификатор кодека : 55
Идентификатор кодека/Подсказка : MP3
Продолжительность : 54 м.
Вид битрейта : Постоянный
Битрейт : 128 Кбит/сек
Каналы : 2 канала
Частота : 48,0 КГц
Метод сжатия : С потерями
Размер потока : 49,5 Мбайт (7%)
Выравнивание : Соединение по промежуткам
Продолжительность промежутка : 40 мс. (1,00 видеокадр)
Время предзагрузки промежутка : 504 мс.
Библиотека кодирования : LAME3.99r
Настройки программы : -m s -V 4 -q 5 -lowpass 17 -b 128

Скриншот с названием

Скриншоты


Альтернативный хост


[teatrix.ru].t11074.torrent 
Торрент: Зарегистрирован [ 2015-12-07 05:05 ] · B3EBD440D5EB2234AA1239A578C4BAE9A50C3B8F

Скачать .torrent

Скачать

14 KB

Статус: проверено
Скачан: 0 раз
Размер: 707 MB
terms.php



Быстрый ответ

Имя:

      
Для отправки сообщений необходимо включить JavaScript
Показать сообщения:    

Текущее время: 04-Дек 00:52

Часовой пояс: UTC + 3


Вы можете начинать темы
Вы можете отвечать на сообщения
Вы не можете редактировать свои сообщения
Вы не можете удалять свои сообщения
Вы не можете голосовать в опросах
Вы не можете прикреплять файлы к сообщениям
Вы можете скачивать файлы