Последняя гастроль Джо Дассена (Екатерина Костина) [2006, Документальный, биография, эстрада, IPTVRip]


Статистика раздачи [Обновить пиров]
Размер:  644 MB   |    Зарегистрирован:  1 год   |    Скачан:  0 раз
Сидов:  5  [  0 KB/s  ]   Личеров:  3  [  0 KB/s  ]   Подробная статистика пиров
 
   
 
 

[Цитировать]

Последняя гастроль Джо Дассена
Дата/Год выпуска: 2006
Страна: Россия
Жанр: Документальный, биография, эстрада
Продолжительность: 00:41:36
Перевод: Не требуется
Русские субтитры: нет
Режиссер: Екатерина Костина
Описание: После знаменитого телевизионного выступления артистов французской эстрады голос Джо Дассена зазвучал по всему Советскому Союзу. Его партнерами на том концерте были Жильбер Беко, Саша Дистель, Далида. Однако соперничать с Джо Дассеном никто из них так и не смог. Он завоевал прочную позицию в советском эфире. Его пластинки выпускали миллионными тиражами, но их не хватало на всех желающих. Песни записывали на магнитофоны с телевизора, а заветные кассеты везли из-за границы.
В те годы советско-французское сотрудничество расширилось: площадь рядом с метро ВДНХ решили назвать в честь де Голля, французская фирма получила заказ на строительство новой гостиницы "Космос". На открытие гостиницы французы решили пригласить двух самых популярных в Советском Союзе артистов - Аллу Пугачеву и Джо Дассена. Певец провел в Москве три дня. На его выступление, конечно, не смог попасть ни один рядовой поклонник. Госконцерт предложил певцу большое турне по Советскому Союзу, и Дассен охотно согласился. Подготовка его гастролей шла полным ходом. Однако им не суждено было состояться...
В фильме, рассказывающем о жизни и творчестве Джо Дассена, прозвучат его песни и интервью с коллегами - Клодом Лемелем и Тото Кутуньо. Также зрители увидят кадры из ленты французских документалистов, снятой в начале семидесятых годов ХХ века.
Сэмпл: http://multi-up.com/1077471
качество: IPTVRip
формат: AVI
Видео: 720x544 (1.32:1), 25 fps, XviD MPEG-4 ~1964 kbps avg, 0.20 bit/pixel
Аудио: 44.1 kHz, AC3 Dolby Digital, 2/0 (L,R) Surround Encoded ch, ~192 kbps

MediaInfo

ОбщееПолное имя : E:\Pshichko66\Na zapis'\Документальные фильмы\Poslednjaja gastrol' Dzho Dassena.aviФормат : AVIФормат/Информация : Audio Video InterleaveРазмер файла : 644 МбайтПродолжительность : 41 м.Общий поток : 2166 Кбит/секПрограмма кодирования : VirtualDubMod 1.5.10.2 (build 2540/release)Библиотека кодирования : VirtualDubMod build 2540/release
ВидеоИдентификатор : 0Формат : MPEG-4 VisualПрофиль формата : Advanced Simple@L5Параметр BVOP формата : 2Параметр QPel формата : НетПараметр GMC формата : Без точки переходаПараметр матрицы формата : ВыборочнаяИдентификатор кодека : XVIDИдентификатор кодека/Подсказка : XviDПродолжительность : 41 м.Битрейт : 1964 Кбит/секШирина : 720 пикселейВысота : 544 пикселяСоотношение сторон : 4:3Частота кадров : 25,000 кадров/секЦветовое пространство : YUVСубдискретизация насыщенности : 4:2:0Битовая глубина : 8 битТип развёртки : ПрогрессивнаяМетод сжатия : С потерямиБит/(Пиксели*Кадры) : 0.201Размер потока : 584 Мбайт (91%)Библиотека кодирования : XviD 73
АудиоИдентификатор : 1Формат : AC-3Формат/Информация : Audio Coding 3Профиль формата : Dolby DigitalРасширение режима : CM (complete main)Параметр Endianness формата : BigИдентификатор кодека : 2000Продолжительность : 41 м.Вид битрейта : ПостоянныйБитрейт : 192 Кбит/секКаналы : 2 каналаРасположение каналов : Front: L RЧастота : 44,1 КГцЧастота кадров : 28,711 кадров/сек (1536 spf)Метод сжатия : С потерямиРазмер потока : 57,1 Мбайт (9%)Выравнивание : Разделение по промежуткамПродолжительность промежутка : 40 мс. (1,00 видеокадр)Время предзагрузки промежутка : 500 мс.

Скриншоты

[teatrix.ru].t11095.torrent 
Торрент: Зарегистрирован [ 2015-12-07 05:05 ] · DC4F5EAF25AFEEA9908DD43E3711596D6A70C929

Скачать .torrent

Скачать

13 KB

Статус: проверено
Скачан: 0 раз
Размер: 644 MB
terms.php



Быстрый ответ

Имя:

      
Для отправки сообщений необходимо включить JavaScript
Показать сообщения:    

Текущее время: 10-Дек 04:11

Часовой пояс: UTC + 3


Вы можете начинать темы
Вы можете отвечать на сообщения
Вы не можете редактировать свои сообщения
Вы не можете удалять свои сообщения
Вы не можете голосовать в опросах
Вы не можете прикреплять файлы к сообщениям
Вы можете скачивать файлы