Таланты и поклонники. Дайте, дайте мне Раневскую!.. / ТК Культура [1996, документальный, тв-передача, биография, история, VHSRip]


Статистика раздачи [Обновить пиров]
Размер:  2.26 GB   |    Зарегистрирован:  1 год   |    Скачан:  0 раз

Полного источника не было: Никогда

Личеров:  1  [  0 KB/s  ]   Подробная статистика пиров
 
   
 
 
 

[Цитировать]

Таланты и поклонники. Дайте, дайте мне Раневскую!..
Дата/Год выпуска: 1996
Страна: Россия
Жанр: Документальный, тв-передача, биография, история
Продолжительность: 00:51:21
Перевод: Не требуется
Русские субтитры: нет
Описание:
Документальный фильм о Фаине Раневской
Автор рипа/записи: Благодарность за предоставленный материал xeladaw
Качество: VHSRip
Формат видео: MPEG-2
Видео: Mpeg 2 720x576 25.00fps 5 948 Kbps
Аудио: MP-2 224 kbps 2 channels 48 KHz 16 bits

MediaInfo

General
Complete name : E:\Таланты и поклонники. Дайте, дайте мне Раневскую.mpg
Format : MPEG-PS
File size : 2.26 GiB
Duration : 51mn 21s
Overall bit rate mode : Variable
Overall bit rate : 6 298 Kbps
Video
ID : 224 (0xE0)
Format : MPEG Video
Format version : Version 2
Format profile : Main@Main
Format settings, BVOP : No
Format settings, Matrix : Custom
Format settings, GOP : Variable
Format settings, picture struc : Frame
Duration : 51mn 21s
Bit rate mode : Variable
Bit rate : 5 948 Kbps
Maximum bit rate : 8 500 Kbps
Width : 720 pixels
Height : 576 pixels
Display aspect ratio : 4:3
Frame rate : 25.000 fps
Standard : PAL
Color space : YUV
Chroma subsampling : 4:2:0
Bit depth : 8 bits
Scan type : Interlaced
Scan order : Top Field First
Compression mode : Lossy
Bits/(Pixel*Frame) : 0.574
Time code of first frame : 00:00:00:00
Time code source : Group of pictures header
Stream size : 2.13 GiB (94%)
Color primaries : BT.601 PAL
Transfer characteristics : BT.470 System B, BT.470 System G
Matrix coefficients : BT.601
Audio
ID : 192 (0xC0)
Format : MPEG Audio
Format version : Version 1
Format profile : Layer 2
Mode : Joint stereo
Mode extension : Intensity Stereo + MS Stereo
Duration : 51mn 21s
Bit rate mode : Constant
Bit rate : 224 Kbps
Channel(s) : 2 channels
Sampling rate : 48.0 KHz
Compression mode : Lossy
Stream size : 82.3 MiB (4%)

Скриншоты

[teatrix.ru].t11097.torrent 
Торрент: Зарегистрирован [ 2015-12-07 05:05 ] · 708B3450D3CC27327B6726832F3A61106E673277

Скачать .torrent

Скачать

12 KB

Статус: проверено
Скачан: 0 раз
Размер: 2.26 GB
terms.php



Быстрый ответ

Имя:

      
Для отправки сообщений необходимо включить JavaScript
Показать сообщения:    

Текущее время: 10-Дек 21:37

Часовой пояс: UTC + 3


Вы можете начинать темы
Вы можете отвечать на сообщения
Вы не можете редактировать свои сообщения
Вы не можете удалять свои сообщения
Вы не можете голосовать в опросах
Вы не можете прикреплять файлы к сообщениям
Вы можете скачивать файлы