Георгий Гамов. Физик от Бога (Ирина Бахтина) [2009, документальный, TVRip]


Статистика раздачи [Обновить пиров]
Размер:  680 MB   |    Зарегистрирован:  1 год   |    Скачан:  0 раз
Сидов:  1  [  0 KB/s  ]   Личеров:  1  [  0 KB/s  ]   Подробная статистика пиров
 
   
 
 
 

[Цитировать]

Георгий Гамов. Физик от Бога
Дата/Год выпуска: 2009
Страна: Россия
Жанр: документальный
Продолжительность: 00:51:42
Перевод: Не требуется
Режиссер: Ирина Бахтина
Описание: Во всех зарубежных энциклопедиях о нем говорится как о выдающемся американском физике. Мемориальная доска украшает стену престижного университета Джорджа Вашингтона в столице США, его именем астронавты назвали большой кратер на Луне. Но физик Джордж Гэммоу был русским - Георгием Антоновичем Гамовым. До перестройки его имя в России было под запретом. Только в 1990 году Гамову посмертно вернули звание члена-корреспондента Академии наук СССР, которое он получил в 1928, став самым молодым избранником в истории российской науки.
Сэмпл: http://sendfile.su/1170437
качество: TVRip
формат: AVI
Видео: XviD, 1700 Кбит/сек, 704 x 416 (1.692), 25.000 fps
Аудио: МР3, 128 Кбит/сек, 2 канала, 48,0 КГц

MediaInfo

ОбщееПолное имя : T:\Мои раздачи\Георгий Гамов. Физик от Бога (2009)\Георгий Гамов. Физик от Бога (2009).aviФормат : AVIФормат/Информация : Audio Video InterleaveРазмер файла : 680 МбайтПродолжительность : 51 м.Общий поток : 1838 Кбит/секПрограмма кодирования : VirtualDubMod 1.5.10.2 (build 2540/release)Библиотека кодирования : VirtualDubMod build 2540/release
ВидеоИдентификатор : 0Формат : MPEG-4 VisualПрофиль формата : Advanced Simple@L5Параметр BVOP формата : 2Параметр QPel формата : НетПараметр GMC формата : Без точки переходаПараметр матрицы формата : Default (H.263)Идентификатор кодека : XVIDИдентификатор кодека/Подсказка : XviDПродолжительность : 51 м.Битрейт : 1700 Кбит/секШирина : 704 пикселяВысота : 416 пикселейСоотношение сторон : 5:3Частота кадров : 25,000 кадров/секЦветовое пространство : YUVСубдискретизация насыщенности : 4:2:0Битовая глубина : 8 битТип развёртки : ПрогрессивнаяМетод сжатия : С потерямиБит/(Пиксели*Кадры) : 0.232Размер потока : 629 Мбайт (93%)Библиотека кодирования : XviD 1.2.1 (UTC 2008-12-04)
АудиоИдентификатор : 1Формат : MPEG AudioВерсия формата : Version 1Профиль формата : Layer 3Идентификатор кодека : 55Идентификатор кодека/Подсказка : MP3Продолжительность : 51 м.Вид битрейта : ПостоянныйБитрейт : 128 Кбит/секКаналы : 2 каналаЧастота : 48,0 КГцМетод сжатия : С потерямиРазмер потока : 47,3 Мбайт (7%)Выравнивание : Соединение по промежуткамПродолжительность промежутка : 40 мс. (1,00 видеокадр)Время предзагрузки промежутка : 504 мс.Библиотека кодирования : LAME3.98rНастройки программы : -m s -V 4 -q 2 -lowpass 17 -b 128

Скриншоты

[teatrix.ru].t11098.torrent 
Торрент: Зарегистрирован [ 2015-12-07 05:05 ] · BF1395CD0E8F013134583775C8835DAB09AA2998

Скачать .torrent

Скачать

14 KB

Статус: проверено
Скачан: 0 раз
Размер: 680 MB
terms.php



Быстрый ответ

Имя:

      
Для отправки сообщений необходимо включить JavaScript
Показать сообщения:    

Текущее время: 11-Дек 11:03

Часовой пояс: UTC + 3


Вы можете начинать темы
Вы можете отвечать на сообщения
Вы не можете редактировать свои сообщения
Вы не можете удалять свои сообщения
Вы не можете голосовать в опросах
Вы не можете прикреплять файлы к сообщениям
Вы можете скачивать файлы