Алла Пугачева. И это все о ней (Первый канал) [2014, Биографический фильм, DVB]


Статистика раздачи [Обновить пиров]
Размер:  2.56 GB   |    Зарегистрирован:  11 месяцев   |    Скачан:  0 раз

Полного источника не было: Никогда

 
   
 
 
 

[Цитировать]

Алла Пугачева. И это все о ней
Дата/Год выпуска: 2014
Страна: Россия
Жанр: Биографический фильм
Продолжительность: 02:08:34
Перевод: Не требуется
Доп. инфо о переводе:
Русские субтитры: нет
Оригинальная аудиодорожка: русский
Режиссер: Первый канал
Телеканал: Ретро
Описание: Все, что вы хотели узнать об Алле Пугачевой – в материалах из ее личного архива: певица и актриса, продюсер и композитор, мать и бабушка.
А так же лучшие песни и интервью разных лет.
Доп. информация: Продюсер: Илья Кривицкий
Сэмпл: https://www.sendspace.com/file/c47row
качество: DVB
формат: MPG
Видео: MPEG2, 720:576, (4:3), 2598 Кбит/сек, 25,000 кадров/сек, (0.251 bit/pixel)
Аудио: MP2, 192 Кбит/сек, 48,0 КГц, 2 канала

MediaInfo

ОбщееПолное имя : И это всё о ней.mpgФормат : MPEG-PSРазмер файла : 2,56 ГбайтПродолжительность : 2 ч. 8 м.Режим общего битрейта : ПеременныйОбщий поток : 2847 Кбит/сек
ВидеоИдентификатор : 224 (0xE0)Формат : MPEG VideoВерсия формата : Version 2Профиль формата : Main@MainПараметр BVOP формата : ДаПараметр матрицы формата : ВыборочнаяПараметр GOP формата : M=3, N=12Структура изображения : FrameПродолжительность : 2 ч. 8 м.Вид битрейта : ПеременныйБитрейт : 2598 Кбит/секМаксимальный битрейт : 10000 Кбит/секШирина : 720 пикселейВысота : 576 пикселейСоотношение сторон : 4:3Частота кадров : 25,000 кадров/секСтандарт вещания : PALЦветовое пространство : YUVСубдискретизация насыщенности : 4:2:0Битовая глубина : 8 битТип развёртки : ЧересстрочнаяПорядок развёртки : Верхнее поле первоеМетод сжатия : С потерямиБит/(Пиксели*Кадры) : 0.251Временной код первого кадра : 00:00:00:00Оригинал временного кода : Group of pictures headerGOP, открыто/закрыто : ОткрытоGOP, открыто/закрыто на первом кадре : ЗакрытоРазмер потока : 2,33 Гбайт (91%)
АудиоИдентификатор : 192 (0xC0)Формат : MPEG AudioВерсия формата : Version 1Профиль формата : Layer 2Продолжительность : 2 ч. 8 м.Вид битрейта : ПостоянныйБитрейт : 192 Кбит/секКаналы : 2 каналаЧастота : 48,0 КГцМетод сжатия : С потерямиЗадержка видео : 18 мс.Размер потока : 177 Мбайт (7%)

Скриншоты

Запись потока *.ts произведена тюнером цифрового телевидения. В связи с тем, что не все плееры воспроизводят поток *.ts (MPEG-TS) , в данном видеофайле мной был сделан ремукс потока *.ts (MPEG-TS) в *.mpg (MPEG-PS) программой VideoReDo.
[teatrix.ru].t11100.torrent 
Торрент: Зарегистрирован [ 2015-12-07 05:05 ] · F537535D3887067646746A6967345E664365BC61

Скачать .torrent

Скачать

13 KB

Статус: проверено
Скачан: 0 раз
Размер: 2.56 GB
terms.php



Быстрый ответ

Имя:

      
Для отправки сообщений необходимо включить JavaScript
Показать сообщения:    

Текущее время: 07-Дек 00:50

Часовой пояс: UTC + 3


Вы можете начинать темы
Вы можете отвечать на сообщения
Вы не можете редактировать свои сообщения
Вы не можете удалять свои сообщения
Вы не можете голосовать в опросах
Вы не можете прикреплять файлы к сообщениям
Вы можете скачивать файлы