В. Высоцкий. Город Пятигорск. Интервью (Валерий Перевозчиков) [14.09.79, Документальный, DVDRip]


Статистика раздачи [Обновить пиров]
Размер:  107 MB   |    Зарегистрирован:  1 год   |    Скачан:  0 раз

Полного источника не было: Никогда

 
   
 
 
 

[Цитировать]

Город Пятигорск.Интервью В .Высоцкого
Дата/Год выпуска: 14.09.79
Страна: Росия
Жанр: Документальный
Продолжительность: 00:09:03
Перевод: Не требуется
Русские субтитры: нет
Режиссер: Журналист Валерий Перевозчиков
Описание: Интервью Владимира Высоцкого в городе Пятигорске
качество: DVDRip
формат: AVI
Видео: XVID 640x480 4:3 1540Kbps 25fps
Аудио: АС3 48kHz 112Kbps моно

MediaInfo

GeneralComplete name : C:\Users\Валерия\Videos\ВЫСОЦКИЙ Пятигорск\Высоцкий. Пятигорск.aviFormat : AVIFormat/Info : Audio Video InterleaveFile size : 107 MiBDuration : 9mn 3sOverall bit rate : 1 656 KbpsWriting application : Lavf54.63.104Comment : www.freemake.com
VideoID : 0Format : xvidCodec ID : xvidDuration : 9mn 3sBit rate : 1 533 KbpsWidth : 640 pixelsHeight : 480 pixelsDisplay aspect ratio : 4:3Frame rate : 25.000 fpsBits/(Pixel*Frame) : 0.200Stream size : 99.3 MiB (93%)
AudioID : 1Format : AC-3Format/Info : Audio Coding 3Mode extension : CM (complete main)Format settings, Endianness : BigCodec ID : 2000Duration : 9mn 3sBit rate mode : ConstantBit rate : 112 KbpsChannel(s) : 1 channelChannel positions : Front: CSampling rate : 48.0 KHzBit depth : 16 bitsCompression mode : LossyStream size : 7.26 MiB (7%)Alignment : Aligned on interleavesInterleave, duration : 32 ms (0.80 video frame)

Скриншоты

[teatrix.ru].t11101.torrent 
Торрент: Зарегистрирован [ 2015-12-07 05:05 ] · 96D6A7CA36D92BD89862FD4C4E05D24FF69A1460

Скачать .torrent

Скачать

17 KB

Статус: проверено
Скачан: 0 раз
Размер: 107 MB
terms.php



Быстрый ответ

Имя:

      
Для отправки сообщений необходимо включить JavaScript
Показать сообщения:    

Текущее время: 10-Дек 04:13

Часовой пояс: UTC + 3


Вы можете начинать темы
Вы можете отвечать на сообщения
Вы не можете редактировать свои сообщения
Вы не можете удалять свои сообщения
Вы не можете голосовать в опросах
Вы не можете прикреплять файлы к сообщениям
Вы можете скачивать файлы