Рузвельты: Личная история / The Roosevelts: An Intimate History (Кен Бернс / Ken Burns) [2014, Док. фильм, SATRip]


Статистика раздачи [Обновить пиров]
Размер:  2.91 GB   |    Зарегистрирован:  1 год   |    Скачан:  2 раза
Сидов:  1  [  0 KB/s  ]   Подробная статистика пиров
 
   
 
 
 

[Цитировать]

Рузвельты: Личная история / The Roosevelts: An Intimate History
Дата/Год выпуска: 2014
Страна: США
Жанр: Док. минисериал
Продолжительность: 06:13:57
Перевод: Субтитры
Русские субтитры: есть
Формат субтитров: hardsub (неотключаемые)
Оригинальная аудиодорожка: английский
Режиссер: Кен Бернс / Ken Burns
Описание: Минисериал, рассказывающий о трех представителях семьи Рузвельтов - президентах Теодоре и Франклине, а также Элеоноре, племяннице Теодора и супруге Франклина
В озвучке минисериала участвовали известные американские актеры:
Пол Джамати (Тедди Рузвельт)
Эдвард Херрман (Франклин Д. Рузвельт)
Мерил Стрип (Элеонора Рузвельт)
А также Кит Каррадайн, Эли Уоллах и Джон Литгоу

Минисериал раздается одним файлом
Список серий:
Get Action (1858-1901)
In the Arena (1901-1910)
The Fire of Life (1910-1919)
The Storm (1920-1933)
The Rising Road (1933-1939)
The Common Cause (1939-1944)
A Strong and Active Faith (1944-1962)

От автора рипа:
В свое время, в перестроечные времена, когда показывать (да и смотреть) знаменитые озеровские эпопеи "Освобождение" и "Битва за Москву" стало дурным тоном ("Солдаты свободы" исчезли еще раньше, сразу же после отставки Герека), Юрий Николаевич принял очень простое и верное решение. Он взял все лучшее из своих великих лент, добавил кинохроники и выпустил на экраны под названием "Трагедия века". Однако нехватка денег сыграла свою роль - проверять и корректировать то, что шло с экрана, оказалось некому. Поэтому там полно разных перлов типа Марта (?!) Геббельс и, что просто не поддается описанию - Франклин Теодор Рузвельт. Так сказать, два президента по цене одного. И это, кстати, не первый случай, когда Франклина (его, несомненно, в России знают больше Теодора) путают с его пятиюродным братом и (в определенной степени) тестем. На одной из игр "Кто хочет стать миллионером" игрок так же перепутал президентов и проиграл. Будем надеяться, что после просмотра этого минисериала путаница, наконец, прекратится.
SATRip от : Твид
Доп. информация: Любезно предоставлено клубом Fenix
Сэмпл: http://multi-up.com/1065244
качество: SATRip
формат: AVI
Видео: XviD, 974 kb/s, 704x528, 25 fps, 0.105 bits/pixel
Аудио: 0x0055(MP3) ID'd as MPEG-1 Layer 3, 128 kb/s (2/ch, stereo) CBR, 48000 Hz - Английский

MediaInfo

ОбщееПолное имя : D:\Fillms-1\Ruzvel`ty`_Lichnaja istorija.SAT-rip.by.Твид.fenixclub.aviФормат : AVIФормат/Информация : Audio Video InterleaveПрофиль формата : OpenDMLРазмер файла : 2,91 ГбайтПродолжительность : 6 ч. 13 м.Общий поток : 1113 Кбит/секПрограмма кодирования : VirtualDubMod 1.5.10.2 (build 2540/release)Библиотека кодирования : VirtualDub build 30009/release
ВидеоИдентификатор : 0Формат : MPEG-4 VisualПрофиль формата : Simple@L3Параметр BVOP формата : 2Параметр QPel формата : НетПараметр GMC формата : Без точки переходаПараметр матрицы формата : Default (H.263)Идентификатор кодека : XVIDИдентификатор кодека/Подсказка : XviDПродолжительность : 6 ч. 13 м.Битрейт : 974 Кбит/секШирина : 704 пикселяВысота : 528 пикселейСоотношение сторон : 4:3Частота кадров : 25,000 кадров/секЦветовое пространство : YUVСубдискретизация насыщенности : 4:2:0Битовая глубина : 8 битТип развёртки : ПрогрессивнаяМетод сжатия : С потерямиБит/(Пиксели*Кадры) : 0.105Размер потока : 2,54 Гбайт (88%)Библиотека кодирования : XviD 1.0.0 RC4 (Hola) (UTC 2004-04-05)
АудиоИдентификатор : 1Формат : MPEG AudioВерсия формата : Version 1Профиль формата : Layer 3Режим : Joint stereoРасширение режима : MS StereoИдентификатор кодека : 55Идентификатор кодека/Подсказка : MP3Продолжительность : 6 ч. 13 м.Вид битрейта : ПостоянныйБитрейт : 128 Кбит/секКаналы : 2 каналаЧастота : 48,0 КГцМетод сжатия : С потерямиРазмер потока : 342 Мбайт (11%)Выравнивание : Разделение по промежуткамПродолжительность промежутка : 40 мс. (1,00 видеокадр)Время предзагрузки промежутка : 500 мс.

Скриншоты

[teatrix.ru].t11102.torrent 
Торрент: Зарегистрирован [ 2015-12-07 05:05 ] · B974BC3B8ACD2F893336CB36B347F19077EEB4A8

Скачать .torrent

Скачать

15 KB

Статус: проверено
Скачан: 2 раз
Размер: 2.91 GB
terms.php



Быстрый ответ

Имя:

      
Для отправки сообщений необходимо включить JavaScript
Показать сообщения:    

Текущее время: 07-Дек 19:28

Часовой пояс: UTC + 3


Вы можете начинать темы
Вы можете отвечать на сообщения
Вы не можете редактировать свои сообщения
Вы не можете удалять свои сообщения
Вы не можете голосовать в опросах
Вы не можете прикреплять файлы к сообщениям
Вы можете скачивать файлы