Луи Рено и Андре Ситроен: Гонка века / Louis Renault et Andre Citroen, la course du siecle (Фабьен Безиа / Fabien Beziat) [2011, документальный, биографический, DVB] VO (Первый канал) + Original (Fre) + Sub (Rus, Eng, Fre, Deu)


Статистика раздачи [Обновить пиров]
Размер:  2.32 GB   |    Зарегистрирован:  11 месяцев   |    Скачан:  0 раз

Полного источника не было: Никогда

 
   
 
 
 

[Цитировать]

Луи Рено и Андре Ситроен: Гонка века
Louis Renault et André Citroën, la course du siècle- Дата/Год выпуска: 2011
Страна: Франция
Жанр: документальный, биографический
Продолжительность: 01:36:37
Перевод: Студийный (одноголосый закадровый)
Доп. инфо о переводе: по заказу ЗАО "Первый канал. Всемирная сеть"; русские субтитры Е.Маньен (Éclair Group)
Русские субтитры: есть
Формат субтитров: prerendered (IDX+SUB)
Доп. информация о субтитрах: русские, английские, французские, немецкие, нидерландские, румынские
Оригинальная аудиодорожка: французский
Режиссер: Фабьен Безиа / Fabien Béziat
Телеканал: TV5MONDE Europe
Описание: Париж, 1934 год. На ступеньках Гран-Пале двое мужчин впервые сфотографированы друг с другом. Их лица вам не знакомы, Рено и Ситроен. Два автомобильных магната. Судьба не пощадит ни того, ни другого. Один через несколько недель внезапно умрет, другого ждут тяжелейшие испытания. Франция забудет о людях, но созданные ими компании станут частью ее истории. Первая их встреча состоялась 50 годами раньше, в парижском лицее Кондорсе. 8-летние мальчишки не знали тогда, что заболеют одной страстью. Страстью, которой суждено будет разобщить их, а под конец – погубить. Вы узнаете удивительную историю Луи Рено и Андре Ситроена. (из предисловия к фильму)
Участник Festival international du film d'histoire de Pessac 2012.

качество: DVB
формат: MKV
Видео: MPEG Video 2, 720x576@1024x576 (16:9), 25 fps, ~2983 kbps avg, 0.288 bit/pixel
Аудио 1: MPEG Audio 2, 2 ch, 48 kHz, ~192.00 kbps avg - русский
Аудио 2: MPEG Audio 2, 2 ch, 48 kHz, ~192.00 kbps avg - французский

MediaInfo

ОбщееУникальный идентификатор : 209279348892407087778178530260520842364 (0x9D71BC89C80016B789A0B0F52D48B47C)Полное имя : F:\My Torrents 3\[apreder]Louis_Renault_et_Andre_Citroen_la_course_du_siecle(2011)DVB.mkvФормат : MatroskaВерсия формата : Version 2Размер файла : 2,32 ГбайтПродолжительность : 1 ч. 36 м.Режим общего битрейта : ПеременныйОбщий поток : 3435 Кбит/секДата кодирования : UTC 2015-08-30 16:18:30Программа кодирования : mkvmerge v8.3.0 ('Over the Horizon') 64bitБиблиотека кодирования : libebml v1.3.1 + libmatroska v1.4.2Attachements : cover.jpg / cover_small.jpgTITLE : Louis Renault & André Citroën, la course du siècleIMDB : tt2310023DATE_RELEASED : 2011-12-11LAW_RATING : 16+GENRE : DocumentaryACTOR : Didier BezaceDIRECTOR : Fabien BéziatKEYWORDS :
ВидеоИдентификатор : 1Формат : MPEG VideoВерсия формата : Version 2Профиль формата : Main@MainПараметр BVOP формата : ДаПараметр матрицы формата : ВыборочнаяПараметр GOP формата : M=4, N=12Format_Settings_PictureStructure : FrameИдентификатор кодека : V_MPEG2Идентификатор кодека/Информация : MPEG 1 or 2 VideoПродолжительность : 1 ч. 36 м.Вид битрейта : ПеременныйБитрейт : 2983 Кбит/секШирина : 720 пикселейВысота : 576 пикселейСоотношение сторон : 16:9Режим частоты кадров : ПостоянныйЧастота кадров : 25,000 кадров/секСтандарт вещания : PALЦветовое пространство : YUVСубдискретизация насыщенности : 4:2:0Битовая глубина : 8 битТип развёртки : ЧересстрочнаяПорядок развёртки : Верхнее поле первоеМетод сжатия : С потерямиБит/(Пиксели*Кадры) : 0.288Временной код первого кадра : 00:00:00:00Оригинал временного кода : Group of pictures headerРазмер потока : 2,01 Гбайт (87%)Default : ДаForced : Нет
Аудио #1Идентификатор : 2Формат : MPEG AudioВерсия формата : Version 1Профиль формата : Layer 2Идентификатор кодека : A_MPEG/L2Идентификатор кодека/Подсказка : MP2Продолжительность : 1 ч. 36 м.Вид битрейта : ПостоянныйБитрейт : 192 Кбит/секКаналы : 2 каналаЧастота : 48,0 КГцМетод сжатия : С потерямиРазмер потока : 133 Мбайт (6%)Язык : RussianDefault : ДаForced : Нет
Аудио #2Идентификатор : 3Формат : MPEG AudioВерсия формата : Version 1Профиль формата : Layer 2Режим : Joint stereoРасширение режима : Intensity Stereo + MS StereoИдентификатор кодека : A_MPEG/L2Идентификатор кодека/Подсказка : MP2Продолжительность : 1 ч. 36 м.Вид битрейта : ПостоянныйБитрейт : 192 Кбит/секКаналы : 2 каналаЧастота : 48,0 КГцМетод сжатия : С потерямиРазмер потока : 133 Мбайт (6%)Язык : FrenchDefault : НетForced : Нет
Текст #1Идентификатор : 4Формат : VobSubИдентификатор кодека : S_VOBSUBИдентификатор кодека/Информация : Picture based subtitle format used on DVDsЯзык : RussianDefault : ДаForced : Нет
Текст #2Идентификатор : 5Формат : VobSubИдентификатор кодека : S_VOBSUBИдентификатор кодека/Информация : Picture based subtitle format used on DVDsЯзык : EnglishDefault : НетForced : Нет
Текст #3Идентификатор : 6Формат : VobSubИдентификатор кодека : S_VOBSUBИдентификатор кодека/Информация : Picture based subtitle format used on DVDsЯзык : FrenchDefault : НетForced : Нет
Текст #4Идентификатор : 7Формат : VobSubИдентификатор кодека : S_VOBSUBИдентификатор кодека/Информация : Picture based subtitle format used on DVDsЯзык : GermanDefault : НетForced : Нет
Текст #5Идентификатор : 8Формат : VobSubИдентификатор кодека : S_VOBSUBИдентификатор кодека/Информация : Picture based subtitle format used on DVDsЯзык : DutchDefault : НетForced : Нет
Текст #6Идентификатор : 9Формат : VobSubИдентификатор кодека : S_VOBSUBИдентификатор кодека/Информация : Picture based subtitle format used on DVDsЯзык : RomanianDefault : НетForced : Нет

Скриншоты


Резервные скриншоты


[teatrix.ru].t11103.torrent 
Торрент: Зарегистрирован [ 2015-12-07 05:05 ] · 56B1AE06EDC9A51F1448A2B621CC725889CC8E24

Скачать .torrent

Скачать

12 KB

Статус: проверено
Скачан: 0 раз
Размер: 2.32 GB
terms.php



Быстрый ответ

Имя:

      
Для отправки сообщений необходимо включить JavaScript
Показать сообщения:    

Текущее время: 06-Дек 19:04

Часовой пояс: UTC + 3


Вы можете начинать темы
Вы можете отвечать на сообщения
Вы не можете редактировать свои сообщения
Вы не можете удалять свои сообщения
Вы не можете голосовать в опросах
Вы не можете прикреплять файлы к сообщениям
Вы можете скачивать файлы