Железный Шурик (Максим Огечин) [2012, Документальный, биография, политика, СССР, IPTVRip]


Статистика раздачи [Обновить пиров]
Размер:  650 MB   |    Зарегистрирован:  11 месяцев   |    Скачан:  0 раз
Сидов:  1  [  0 KB/s  ]   Подробная статистика пиров
 
   
 
 
 

[Цитировать]

Железный Шурик
Дата/Год выпуска: 2012
Страна: Россия
Жанр: Документальный, биография, политика, СССР
Продолжительность: 00:42:33
Перевод: Не требуется
Русские субтитры: нет
Режиссер: Максим Огечин
Телеканал: История
Описание: Фильм рассказывает об известном советском политическом деятеле Александре Николаевиче Шелепине. Его карьере многие завидовали и считали крайне удачной. В сталинское время - один из лидеров московского комсомола; в хрущевский период - стремительный взлет до главы КГБ СССР (где получил прозвище "Железный Шурик") и одного из лидеров партии. Его считали доверенным лицом Хрущева, но именно он и его сторонники, который в узких партийных кругах называли "комсомольцами", сыграли одну из решающих ролей в смещении Первого секретаря и приходе к власти Л. Брежнева.
Сэмпл: http://multi-up.com/1063111
качество: IPTVRip
формат: AVI
Видео: 720x384 (1.88:1), 25 fps, XviD MPEG-4 ~1935 kbps avg, 0.28 bit/pixel
Аудио: 48 kHz, AC3 Dolby Digital, 2 ch, ~192.00 kbps avg

MediaInfo

GeneralComplete name : W:\Pshichko66\Na zapis'\Документальные фильмы\Zheleznyj Shurik.aviFormat : AVIFormat/Info : Audio Video InterleaveFormat profile : OpenDMLFormat settings : recFile size : 650 MiBDuration : 42mn 33sOverall bit rate : 2 135 KbpsWriting application : AVI-Mux GUI 1.17.8.3, Feb 16 201019:42:50
VideoID : 0Format : MPEG-4 VisualFormat profile : Advanced Simple@L5Format settings, BVOP : 2Format settings, QPel : NoFormat settings, GMC : No warppointsFormat settings, Matrix : CustomCodec ID : XVIDCodec ID/Hint : XviDDuration : 42mn 33sBit rate : 1 937 KbpsWidth : 720 pixelsHeight : 384 pixelsDisplay aspect ratio : 1.85:1Frame rate : 25.000 fpsColor space : YUVChroma subsampling : 4:2:0Bit depth : 8 bitsScan type : ProgressiveCompression mode : LossyBits/(Pixel*Frame) : 0.280Stream size : 589 MiB (91%)Writing library : XviD 73
AudioID : 1Format : AC-3Format/Info : Audio Coding 3Format profile : Dolby DigitalMode extension : CM (complete main)Format settings, Endianness : BigCodec ID : 2000Duration : 42mn 33sBit rate mode : ConstantBit rate : 192 KbpsChannel(s) : 2 channelsChannel positions : Front: L RSampling rate : 48.0 KHzCompression mode : LossyStream size : 58.4 MiB (9%)Alignment : Aligned on interleavesInterleave, duration : 64 ms (1.60 video frames)Interleave, preload duratio : 192 msTitle : жшшш
[teatrix.ru].t11104.torrent 
Торрент: Зарегистрирован [ 2015-12-07 05:05 ] · 9F2652FB0266E6345B1E03E66344E6803A1E8A2A

Скачать .torrent

Скачать

13 KB

Статус: проверено
Скачан: 0 раз
Размер: 650 MB
terms.php



Быстрый ответ

Имя:

      
Для отправки сообщений необходимо включить JavaScript
Показать сообщения:    

Текущее время: 04-Дек 15:18

Часовой пояс: UTC + 3


Вы можете начинать темы
Вы можете отвечать на сообщения
Вы не можете редактировать свои сообщения
Вы не можете удалять свои сообщения
Вы не можете голосовать в опросах
Вы не можете прикреплять файлы к сообщениям
Вы можете скачивать файлы