Раймон Пулидор - чемпион / Poulidor premier (Патрик Жёди / Patrick Jeudy) [2015, документальный, биографический, велоспорт, DVB]


Статистика раздачи [Обновить пиров]
Размер:  2.13 GB   |    Зарегистрирован:  1 год   |    Скачан:  0 раз

Полного источника не было: Никогда

 
   
 
 
 

[Цитировать]

Пулидор - чемпион
Poulidor premier- Дата/Год выпуска: 2015
Страна: Франция, Швейцария
Жанр: документальный, биографический, велоспорт
Продолжительность: 01:33:29
Перевод: Субтитры
Доп. инфо о переводе: русский перевод И.Рыбкиной, Éclair Group
Русские субтитры: естьФормат субтитров: prerendered (IDX+SUB)
Доп. информация о субтитрах: русские, английские, французские, немецкие, нидерландские, румынские
Оригинальная аудиодорожка: французский
Режиссер: Патрик Жёди / Patrick Jeudy
Телеканал: TV5MONDE Europe
Описание: Французский велосипедист Раймон Пулидор (Raymond Poulidor) является рекордсменом Тур де Франс: поднимался на подиум - 8 раз; "вечно второй" -1964, 1965, 1974; "вечно третий" - 1962, 1966, 1969, 1972, 1976; ни разу не надевал желтую майку лидера; ни разу не выигрывал Тур де Франс. 14 раз участвовал в Большой Петле. Пулидор стал легендой не по своей воле - а, главным образом, благодаря битве с Жаком Анкетилем (Jacques Anquetil) в 1964 году, которая разделила болельщиков Франции на две части. Когда Анкетиль завершил карьеру, его место занял Меркс. Желтая майка лидера не был создана для Пулидора, он был так близок к ней на прологе 1973 года, но проиграл менее секунды Йоопу Зутемельку.
Доп. информация: Hot Bird (13.0°E) DVB-S

качество: DVB
формат: MKV
Видео: MPEG Video 2, 720x576@1024x576 (16:9), 25 fps, ~3001 kbps avg, 0.289 bit/pixel
Аудио: MPEG Audio 2, 2 ch, 48 kHz, ~192.00 kbps avg - французский

MediaInfo

ОбщееУникальный идентификатор : 244493672734067155117202250931117368486 (0xB7EFC4BFE6A126648DEE064C175224A6)Полное имя : F:\My Torrents 3\[apreder]Poulidor_premier(2015)DVB.mkvФормат : MatroskaВерсия формата : Version 2Размер файла : 2,13 ГбайтПродолжительность : 1 ч. 33 м.Режим общего битрейта : ПеременныйОбщий поток : 3258 Кбит/секДата кодирования : UTC 2015-07-08 15:33:49Программа кодирования : mkvmerge v8.1.0 ('Psychedelic Postcard') 64bitБиблиотека кодирования : libebml v1.3.1 + libmatroska v1.4.2Attachements : cover.png / cover_small.png
ВидеоИдентификатор : 1Формат : MPEG VideoВерсия формата : Version 2Профиль формата : Main@MainПараметр BVOP формата : ДаПараметр матрицы формата : ВыборочнаяПараметр GOP формата : M=4, N=12Format_Settings_PictureStructure : FrameИдентификатор кодека : V_MPEG2Идентификатор кодека/Информация : MPEG 1 or 2 VideoПродолжительность : 1 ч. 33 м.Вид битрейта : ПеременныйБитрейт : 3001 Кбит/секШирина : 720 пикселейВысота : 576 пикселейСоотношение сторон : 16:9Режим частоты кадров : ПостоянныйЧастота кадров : 25,000 кадров/секСтандарт вещания : PALЦветовое пространство : YUVСубдискретизация насыщенности : 4:2:0Битовая глубина : 8 битТип развёртки : ЧересстрочнаяПорядок развёртки : Верхнее поле первоеМетод сжатия : С потерямиБит/(Пиксели*Кадры) : 0.289Временной код первого кадра : 00:00:00:00Оригинал временного кода : Group of pictures headerРазмер потока : 1,96 Гбайт (92%)Default : ДаForced : Нет
АудиоИдентификатор : 2Формат : MPEG AudioВерсия формата : Version 1Профиль формата : Layer 2Режим : Joint stereoРасширение режима : Intensity Stereo + MS StereoИдентификатор кодека : A_MPEG/L2Идентификатор кодека/Подсказка : MP2Продолжительность : 1 ч. 33 м.Вид битрейта : ПостоянныйБитрейт : 192 Кбит/секКаналы : 2 каналаЧастота : 48,0 КГцМетод сжатия : С потерямиРазмер потока : 128 Мбайт (6%)Язык : FrenchDefault : ДаForced : Нет
Текст #1Идентификатор : 3Формат : VobSubИдентификатор кодека : S_VOBSUBИдентификатор кодека/Информация : Picture based subtitle format used on DVDsЯзык : RussianDefault : ДаForced : Нет
Текст #2Идентификатор : 4Формат : VobSubИдентификатор кодека : S_VOBSUBИдентификатор кодека/Информация : Picture based subtitle format used on DVDsЯзык : EnglishDefault : НетForced : Нет
Текст #3Идентификатор : 5Формат : VobSubИдентификатор кодека : S_VOBSUBИдентификатор кодека/Информация : Picture based subtitle format used on DVDsЯзык : FrenchDefault : НетForced : Нет
Текст #4Идентификатор : 6Формат : VobSubИдентификатор кодека : S_VOBSUBИдентификатор кодека/Информация : Picture based subtitle format used on DVDsЯзык : GermanDefault : НетForced : Нет
Текст #5Идентификатор : 7Формат : VobSubИдентификатор кодека : S_VOBSUBИдентификатор кодека/Информация : Picture based subtitle format used on DVDsЯзык : DutchDefault : НетForced : Нет
Текст #6Идентификатор : 8Формат : VobSubИдентификатор кодека : S_VOBSUBИдентификатор кодека/Информация : Picture based subtitle format used on DVDsЯзык : RomanianDefault : НетForced : Нет

Скриншоты


Резервные скриншоты


-[2'442]
[teatrix.ru].t11107.torrent 
Торрент: Зарегистрирован [ 2015-12-07 05:05 ] · 4E213223C572D7F984F77C7FE63C514E1090D23B

Скачать .torrent

Скачать

11 KB

Статус: проверено
Скачан: 0 раз
Размер: 2.13 GB
terms.php



Быстрый ответ

Имя:

      
Для отправки сообщений необходимо включить JavaScript
Показать сообщения:    

Текущее время: 09-Дек 16:34

Часовой пояс: UTC + 3


Вы можете начинать темы
Вы можете отвечать на сообщения
Вы не можете редактировать свои сообщения
Вы не можете удалять свои сообщения
Вы не можете голосовать в опросах
Вы не можете прикреплять файлы к сообщениям
Вы можете скачивать файлы