Кумиры экрана. Александр Лазарев (Руслан Заварзин) [2000, Личности и кумиры, DVB]


Статистика раздачи [Обновить пиров]
Размер:  482 MB   |    Зарегистрирован:  1 год   |    Скачан:  0 раз

Полного источника не было: Никогда

 
   
 
 
 

[Цитировать]

Кумиры экрана. Александр Лазарев
Дата/Год выпуска: 2000
Страна: Россия
Жанр: Личности и кумиры
Продолжительность: 00:24:06
Перевод: Не требуется
Студия / издатель: ВТВ-сервис
Режиссер: Руслан Заварзин
Телеканал: Ретро
Описание:
Советский и российский актер театра и кино, народный артист России Александр Сергеевич Лазарев родился 3 января 1938 года в Ленинграде (ныне Санкт-Петербург).Во время блокады Ленинграда семье Лазаревых пришлось уехать на несколько месяцев в Оренбург. В 1944 году, после снятия блокады, они вернулись в Ленинград.Весной 1955 года, еще не окончив школу, Александр Лазарев прошел отбор и был зачислен в Школу-студию МХАТ, осенью 1955 года он переехал в Москву.Учился в Школе-студии МХАТ на одном курсе с Вячеславом Невинным, Анатолием Ромашиным, Альбертом Филозовым.Когда Лазарев был на первом курсе, молодой педагог Школы-студии, артист Центрального детского театра Олег Ефремов создал из числа выпускников Театр-студию молодых актеров (будущий "Современник"). Лазарев и его сокурсники принимали посильное участие: таскали декорации, красили, играли эпизодические роли.В 1959 году, окончив Школу-студию МХАТ, Александр Лазарев стал актером Московского академического театра им. Вл. Маяковского, в котором проработал до конца жизни. Кроме этого Александр Лазарев сыграл большое количество самых разных ролей в кино.
Доп. информация: "Кумиры экрана" - авторская передача Народной артистки СССР Клары Лучко, выступающей в роли ведущей.
Сэмпл: https://www.sendspace.com/file/qfgc03
качество: DVB
формат: MPG
Видео: MPEG2, 720:576, (4:3) 2337 Кбит/сек, 25,000 кадров/сек, (0.225 bit/pixel)
Аудио: MP2, 192 Кбит/сек, 48,0 КГц, 2 канала

MediaInfo

ОбщееПолное имя : Александр Лазарев.mpgФормат : MPEG-PSРазмер файла : 482 МбайтПродолжительность : 26 м.Режим общего битрейта : ПеременныйОбщий поток : 2580 Кбит/сек
ВидеоИдентификатор : 224 (0xE0)Формат : MPEG VideoВерсия формата : Version 2Профиль формата : Main@MainПараметр BVOP формата : ДаПараметр матрицы формата : ВыборочнаяПараметр GOP формата : M=3, N=12Структура изображения : FrameПродолжительность : 26 м.Вид битрейта : ПеременныйБитрейт : 2337 Кбит/секМаксимальный битрейт : 10000 Кбит/секШирина : 720 пикселейВысота : 576 пикселейСоотношение сторон : 4:3Частота кадров : 25,000 кадров/секСтандарт вещания : PALЦветовое пространство : YUVСубдискретизация насыщенности : 4:2:0Битовая глубина : 8 битТип развёртки : ЧересстрочнаяПорядок развёртки : Верхнее поле первоеМетод сжатия : С потерямиБит/(Пиксели*Кадры) : 0.225Временной код первого кадра : 00:00:00:00Оригинал временного кода : Group of pictures headerGOP, открыто/закрыто : ОткрытоGOP, открыто/закрыто на первом кадре : ЗакрытоРазмер потока : 437 Мбайт (91%)
АудиоИдентификатор : 192 (0xC0)Формат : MPEG AudioВерсия формата : Version 1Профиль формата : Layer 2Продолжительность : 26 м.Вид битрейта : ПостоянныйБитрейт : 192 Кбит/секКаналы : 2 каналаЧастота : 48,0 КГцМетод сжатия : С потерямиЗадержка видео : 23 мс.Размер потока : 35,9 Мбайт (7%)

Скриншоты

Запись потока *.ts произведена тюнером цифрового телевидения. В связи с тем, что не все плееры воспроизводят поток *.ts (MPEG-TS) , в данном видеофайле мной был сделан ремукс потока *.ts (MPEG-TS) в *.mpg (MPEG-PS) программой VideoReDo.
[teatrix.ru].t11108.torrent 
Торрент: Зарегистрирован [ 2015-12-07 05:05 ] · 893B2D375F4C58D30DA2D714051C564A4022E4E3

Скачать .torrent

Скачать

19 KB

Статус: проверено
Скачан: 0 раз
Размер: 482 MB
terms.php



Быстрый ответ

Имя:

      
Для отправки сообщений необходимо включить JavaScript
Показать сообщения:    

Текущее время: 09-Дек 01:03

Часовой пояс: UTC + 3


Вы можете начинать темы
Вы можете отвечать на сообщения
Вы не можете редактировать свои сообщения
Вы не можете удалять свои сообщения
Вы не можете голосовать в опросах
Вы не можете прикреплять файлы к сообщениям
Вы можете скачивать файлы