Кумиры экрана. Ариадна Шенгелая (Руслан Заварзин) [2000, Личности и кумиры, DVB]


Статистика раздачи [Обновить пиров]
Размер:  449 MB   |    Зарегистрирован:  1 год 1 месяц   |    Скачан:  0 раз

Полного источника не было: Никогда

 
   
 
 
 

[Цитировать]

Кумиры экрана. Ариадна Шенгелая
Дата/Год выпуска: 2000
Страна: Россия
Жанр: Личности и кумиры
Продолжительность: 00:24:06
Перевод: Не требуется
Студия / издатель: ВТВ-сервис
Режиссер: Руслан Заварзин
Телеканал: Ретро
Описание:
Родилась 13 января 1937 года в Ташкенте, Узбекская ССР.
Окончила Всесоюзный государственный институт кинематографии (1960) - актерская мастерская В. Белокурова.
Была актрисой Русского драматического театра им. А. С. Грибоедова в Тбилиси,
с 1960 – актриса киностудии "Грузия-фильм",
с 1980 – актриса киностудии им. М. Горького.
В кино Ариадна Всеволодовна дебютировала в 1957 году в роли Ирины в художественном фильме «Екатерина Воронина». Еще учась в Институте кинематографии, Шенгелая снялась в двух фильмах: в „Евгение Онегине" (Татьяна Ларина) и в „Евгении Гранде" (Евгения).
В конце 1950-х — начале 1960-х годов была одной из самых популярных актрис советского кино.
Зрители запомнили ее тонкую аристократическую красоту и древнегреческое имя – Ариадна. Безусловно, восточная красота актрисы привлекала внимание режиссеров. Поначалу ей предлагали роли юных девушек, вступавших в самостоятельную жизнь, умеющих нести ответственность за свои поступки и ошибки, обладающих сильной волей, умеющих добиваться цели, понимая, что не все средства для этого хороши.
Потом как бусинки на ниточку стали нанизываться интересные работы с такими режиссерами, как Иван Пырьев («Белые ночи») Георгий Данелия («Не горюй!»), Надежда Кошеверова («Осторожно, бабушка!»), Феликс Миронер («Увольнение на берег»), Исидор Анненский («Таланты и поклонники», «Екатерина Воронина»), Абрам Роом («Гранатовый браслет»), Наум Трахтенберг («Выстрел»), Эльдар Шенгелая («Чудаки») и многие другие.
Не осталась чуждой для нее и театральная сцена, где она сыграла роль Клеопатры в пьесе Бернарда Шоу "Цезарь и Клеопатра" и роль Анны Франк в спектакле "Дневник Анны Франк" по Э.Гудричу и А.Хеккету, так же она исполняласледующие роли в театре : Нина - "Маскарад", М. Ю. Лермонтов
Кэтрин Барклей - "Прощай, оружие!" Э. Хемингуэй (Московский театр им. Ленинского комсомола, реж. А. Гинзбург) и др.
Доп. информация: "Кумиры экрана" - авторская передача Народной артистки СССР Клары Лучко, выступающей в роли ведущей.
Сэмпл: https://www.sendspace.com/file/0du32t
качество: DVB
формат: MPG
Видео: MPEG2, 720:576, (4:3) 2358 Кбит/сек, 25,000 кадров/сек, (0.227 bit/pixel)
Аудио: MP2, 192 Кбит/сек, 48,0 КГц, 2 канала

MediaInfo

ОбщееПолное имя : Кумиры экрана\Ариадна Шенгелая.mpgФормат : MPEG-PSРазмер файла : 449 МбайтПродолжительность : 24 м.Режим общего битрейта : ПеременныйОбщий поток : 2601 Кбит/сек
ВидеоИдентификатор : 224 (0xE0)Формат : MPEG VideoВерсия формата : Version 2Профиль формата : Main@MainПараметр BVOP формата : ДаПараметр матрицы формата : ВыборочнаяПараметр GOP формата : M=3, N=12Структура изображения : FrameПродолжительность : 24 м.Вид битрейта : ПеременныйБитрейт : 2358 Кбит/секМаксимальный битрейт : 10000 Кбит/секШирина : 720 пикселейВысота : 576 пикселейСоотношение сторон : 4:3Частота кадров : 25,000 кадров/секСтандарт вещания : PALЦветовое пространство : YUVСубдискретизация насыщенности : 4:2:0Битовая глубина : 8 битТип развёртки : ЧересстрочнаяПорядок развёртки : Верхнее поле первоеМетод сжатия : С потерямиБит/(Пиксели*Кадры) : 0.227Временной код первого кадра : 00:00:00:00Оригинал временного кода : Group of pictures headerGOP, открыто/закрыто : ОткрытоGOP, открыто/закрыто на первом кадре : ЗакрытоРазмер потока : 407 Мбайт (91%)
АудиоИдентификатор : 192 (0xC0)Формат : MPEG AudioВерсия формата : Version 1Профиль формата : Layer 2Продолжительность : 24 м.Вид битрейта : ПостоянныйБитрейт : 192 Кбит/секКаналы : 2 каналаЧастота : 48,0 КГцМетод сжатия : С потерямиЗадержка видео : 9 мс.Размер потока : 33,1 Мбайт (7%)

Скриншоты

Запись потока *.ts произведена тюнером цифрового телевидения. В связи с тем, что не все плееры воспроизводят поток *.ts (MPEG-TS) , в данном видеофайле мной был сделан ремукс потока *.ts (MPEG-TS) в *.mpg (MPEG-PS) программой VideoReDo.
[teatrix.ru].t11109.torrent 
Торрент: Зарегистрирован [ 2015-12-07 05:05 ] · A115BE6CBC18D3E32D8890D119A36E95244D2196

Скачать .torrent

Скачать

18 KB

Статус: проверено
Скачан: 0 раз
Размер: 449 MB
terms.php



Быстрый ответ

Имя:

      
Для отправки сообщений необходимо включить JavaScript
Показать сообщения:    

Текущее время: 21-Янв 11:34

Часовой пояс: UTC + 3


Вы можете начинать темы
Вы можете отвечать на сообщения
Вы не можете редактировать свои сообщения
Вы не можете удалять свои сообщения
Вы не можете голосовать в опросах
Вы не можете прикреплять файлы к сообщениям
Вы можете скачивать файлы