Суворов (Алексей Денисов) [2006 г., Документальный, DVDRip] Обновлено 12.06.15


Статистика раздачи [Обновить пиров]
Размер:  639 MB   |    Зарегистрирован:  11 месяцев 27 дней   |    Скачан:  0 раз

Полного источника не было: Никогда

Личеров:  1  [  0 KB/s  ]   Подробная статистика пиров
 
   
 
 
 

[Цитировать]

Суворов
Год выпуска: 2006
Страна: Россия
Жанр: документальный
Продолжительность: 00:43:55
Режиссер: Алексей Денисов
Описание: "Потомство мое прошу брать мой пример: всякое дело начинать с благословением Божиим; до издыхания быть верным Государю и Отечеству; убегать роскоши, праздности, корыстолюбия и искать славы чрез истину и добродетель, которые суть моим символом…" (Александр Суворов)
Великий русский полководец Александр Васильевич Суворов - поистине легендарная личность мирового значения. Подвигами его написана история конца XVIII века. Доблестному взятию крепости Измаил поражались не только наши соотечественники, но и военачальники всей Европы. Способность четко анализировать обстановку, быстрота и натиск – вот те качества, которые помогали Суворову в бою и благодаря которым он по праву считается примером настоящего мужества и отваги в тактике ведения боя.
Суворов не проиграл ни одного сражения. Пройдя путь от рядового солдата до фельдмаршала, Александр Васильевич понимал солдата как никто другой из офицеров русской армии. Боевой дух Суворова является примером и для нынешних Вооруженных сил России. Подвиги его бессмертны. Заслуги перед нашим Отечеством грандиозны.
Качество: DVDRip
Формат: AVI
Видео кодек: XviD
Аудио кодек: МР3
Видео: 720x544 (1.333:1), 50,000 fps, XviD MPEG-4 1825 kbps avg, 0.093 bit/pixel*кадры
Аудио: 48 kHz, МР3, 2/0 (L,R) ch, ~192.00 kbps avg

MediaInfo

Полное имя : L:\Новое кодирование\Суворов.avi
Формат : AVI
Формат/Информация : Audio Video Interleave
Размер файла : 639 Мбайт
Продолжительность : 43 м.
Общий поток : 2034 Кбит/сек
Программа кодирования : Lavf56.15.102
Примечание : DVD > AVI DVD Player 576p / MPEG2 > XVID VBR-3P 1825kbps HQ / AC3 > MP3 HQ
Видео
Идентификатор : 0
Формат : MPEG-4 Visual
Профиль формата : Advanced Simple@L5
Параметр BVOP формата : 1
Параметр QPel формата : Нет
Параметр GMC формата : Без точки перехода
Параметр матрицы формата : Default (H.263)
Идентификатор кодека : XVID
Идентификатор кодека/Подсказка : XviD
Продолжительность : 43 м.
Битрейт : 1825 Кбит/сек
Ширина : 720 пикселей
Высота : 544 пикселя
Соотношение сторон : 4:3
Частота кадров : 50,000 кадров/сек
Цветовое пространство : YUV
Субдискретизация насыщенности : 4:2:0
Битовая глубина : 8 бит
Тип развёртки : Прогрессивная
Метод сжатия : С потерями
Бит/(Пиксели*Кадры) : 0.093
Размер потока : 573 Мбайт (90%)
Библиотека кодирования : XviD 64
Аудио
Идентификатор : 1
Формат : MPEG Audio
Версия формата : Version 1
Профиль формата : Layer 3
Режим : Joint stereo
Расширение режима : MS Stereo
Идентификатор кодека : 55
Идентификатор кодека/Подсказка : MP3
Продолжительность : 43 м.
Вид битрейта : Постоянный
Битрейт : 192 Кбит/сек
Каналы : 2 канала
Частота : 48,0 КГц
Метод сжатия : С потерями
Размер потока : 60,3 Мбайт (9%)
Выравнивание : Соединение по промежуткам
Продолжительность промежутка : 24 мс. (1,20 видеокадр)
Библиотека кодирования : LAME3.99.5

Скриншоты

[teatrix.ru].t11110.torrent 
Торрент: Зарегистрирован [ 2015-12-07 05:05 ] · 4F842EFAE4179D4ADA565B9910348CBA61A29355

Скачать .torrent

Скачать

13 KB

Статус: проверено
Скачан: 0 раз
Размер: 639 MB
terms.php



Быстрый ответ

Имя:

      
Для отправки сообщений необходимо включить JavaScript
Показать сообщения:    

Текущее время: 03-Дек 05:30

Часовой пояс: UTC + 3


Вы можете начинать темы
Вы можете отвечать на сообщения
Вы не можете редактировать свои сообщения
Вы не можете удалять свои сообщения
Вы не можете голосовать в опросах
Вы не можете прикреплять файлы к сообщениям
Вы можете скачивать файлы