Марин Кармиц. Свой среди чужих / Marin Karmitz - Bande a part (Феликс фон Бём / Felix Von Boehm) [2012, документальный, биографический, DVB] Original (Fre) + Sub (Rus)


Статистика раздачи [Обновить пиров]
Размер:  1.1 GB   |    Зарегистрирован:  11 месяцев 27 дней   |    Скачан:  0 раз

Полного источника не было: Никогда

 
   
 
 
 

[Цитировать]

Марин Кармиц. Свой среди чужих
Marin Karmitz - Bande à part- Дата/Год выпуска: 2012
Страна: Франция
Жанр: документальный, биографический
Продолжительность: 00:51:00
Перевод: Субтитры
Русские субтитры: естьФормат субтитров: prerendered (IDX+SUB)
Доп. информация о субтитрах: русский перевод Е.Маньен, Éclair Group
Оригинальная аудиодорожка: французский
Режиссер: Феликс фон Бём / Felix Von Boehm
Телеканал: TV5MONDE Europe
Описание: Марин Кармиц - продюсер Годара и братьев Тавиани, Куросавы и Ханеке, Фасбиндера и Мидзогути, Лоуча и Сатьяджита Рея, Гринуэя и Кассаветеса, Луи Маля, Нанни Моретти и Джеймса Айвори, Кесьлевского и Сабо, Кроненберга, Менцеля, Ангелопулоса, Рене...
Документальный фильм назван как и его полижанровая книга "Отдельная банда" – это портрет Марина Кармица, неуступчивого, последовательного и страстного защитника искусства кино.
Доп. информация: Hot Bird (13.0°E) DVB-S

качество: DVB
формат: MKV
Видео: MPEG Video 2, 720x576@1024x576 (16:9), 25 fps, ~2826 kbps avg, 0.273 bit/pixel
Аудио: MPEG Audio 2, 2 ch, 48 kHz, ~192.00 kbps avg - французский

MediaInfo

ОбщееУникальный идентификатор : 172362202915905322996559478940225493205 (0x81ABC0B6B0A7D16382813474EAC3D8D5)Полное имя : E:\My Torrents 2\[apreder]Marin_Karmitz_Bande_a_part(2012)DVB.mkvФормат : MatroskaВерсия формата : Version 2Размер файла : 1,10 ГбайтПродолжительность : 51 м.Режим общего битрейта : ПеременныйОбщий поток : 3079 Кбит/секДата кодирования : UTC 2015-05-24 17:24:07Программа кодирования : mkvmerge v7.9.0 ('Birds') 64bitБиблиотека кодирования : libebml v1.3.1 + libmatroska v1.4.2
ВидеоИдентификатор : 1Формат : MPEG VideoВерсия формата : Version 2Профиль формата : Main@MainПараметр BVOP формата : ДаПараметр матрицы формата : ВыборочнаяПараметр GOP формата : M=4, N=12Format_Settings_PictureStructure : FrameИдентификатор кодека : V_MPEG2Идентификатор кодека/Информация : MPEG 1 or 2 VideoПродолжительность : 51 м.Вид битрейта : ПеременныйБитрейт : 2826 Кбит/секШирина : 720 пикселейВысота : 576 пикселейСоотношение сторон : 16:9Режим частоты кадров : ПостоянныйЧастота кадров : 25,000 кадров/секСтандарт вещания : PALЦветовое пространство : YUVСубдискретизация насыщенности : 4:2:0Битовая глубина : 8 битТип развёртки : ЧересстрочнаяПорядок развёртки : Верхнее поле первоеМетод сжатия : С потерямиБит/(Пиксели*Кадры) : 0.273Временной код первого кадра : 00:00:00:00Оригинал временного кода : Group of pictures headerРазмер потока : 1,01 Гбайт (92%)Default : ДаForced : Нет
АудиоИдентификатор : 2Формат : MPEG AudioВерсия формата : Version 1Профиль формата : Layer 2Режим : Joint stereoРасширение режима : Intensity Stereo + MS StereoИдентификатор кодека : A_MPEG/L2Идентификатор кодека/Подсказка : MP2Продолжительность : 51 м.Вид битрейта : ПостоянныйБитрейт : 192 Кбит/секКаналы : 2 каналаЧастота : 48,0 КГцМетод сжатия : С потерямиРазмер потока : 70,0 Мбайт (6%)Язык : FrenchDefault : ДаForced : Нет
Текст #1Идентификатор : 3Формат : VobSubРежим смешивания : zlibИдентификатор кодека : S_VOBSUBИдентификатор кодека/Информация : Picture based subtitle format used on DVDsЯзык : RussianDefault : ДаForced : Нет
Текст #2Идентификатор : 4Формат : VobSubРежим смешивания : zlibИдентификатор кодека : S_VOBSUBИдентификатор кодека/Информация : Picture based subtitle format used on DVDsЯзык : EnglishDefault : НетForced : Нет
Текст #3Идентификатор : 5Формат : VobSubРежим смешивания : zlibИдентификатор кодека : S_VOBSUBИдентификатор кодека/Информация : Picture based subtitle format used on DVDsЯзык : FrenchDefault : НетForced : Нет
Текст #4Идентификатор : 6Формат : VobSubРежим смешивания : zlibИдентификатор кодека : S_VOBSUBИдентификатор кодека/Информация : Picture based subtitle format used on DVDsЯзык : GermanDefault : НетForced : Нет
Текст #5Идентификатор : 7Формат : VobSubРежим смешивания : zlibИдентификатор кодека : S_VOBSUBИдентификатор кодека/Информация : Picture based subtitle format used on DVDsЯзык : DutchDefault : НетForced : Нет
Текст #6Идентификатор : 8Формат : VobSubРежим смешивания : zlibИдентификатор кодека : S_VOBSUBИдентификатор кодека/Информация : Picture based subtitle format used on DVDsЯзык : RomanianDefault : НетForced : Нет

Скриншоты


Резервные скриншоты


-[2'295]
[teatrix.ru].t11111.torrent 
Торрент: Зарегистрирован [ 2015-12-07 05:05 ] · CDC525DB4064EC461AD794D2310AE2E6CE70ACDF

Скачать .torrent

Скачать

11 KB

Статус: проверено
Скачан: 0 раз
Размер: 1.1 GB
terms.php



Быстрый ответ

Имя:

      
Для отправки сообщений необходимо включить JavaScript
Показать сообщения:    

Текущее время: 04-Дек 02:54

Часовой пояс: UTC + 3


Вы можете начинать темы
Вы можете отвечать на сообщения
Вы не можете редактировать свои сообщения
Вы не можете удалять свои сообщения
Вы не можете голосовать в опросах
Вы не можете прикреплять файлы к сообщениям
Вы можете скачивать файлы