Дорис Пейн: великая похитительница бриллиантов / The Life and Crimes of Doris Payne (Кирк Марколина / Kirk Marcolina, Мэттью Понд / Matthew Pond) [2013, документальный, биографический, DVB] MVO (24 ДОК)


Статистика раздачи [Обновить пиров]
Размер:  1.21 GB   |    Зарегистрирован:  11 месяцев   |    Скачан:  0 раз

Полного источника не было: Никогда

 
   
 
 
 

[Цитировать]

Дорис Пейн: великая похитительница бриллиантов
The Life and Crimes of Doris Payne- Дата/Год выпуска: 2013
Страна: США
Жанр: документальный, биографический
Продолжительность: 01:12:06
Перевод: Профессиональный (многоголосый закадровый)
Доп. инфо о переводе: 24 ДОК
Русские субтитры: нет
Режиссер: Кирк Марколина / Kirk Marcolina, Мэттью Понд / Matthew Pond
Телеканал: 24 ДОКОписание: Изысканно одетая 81-летняя Дорис Пейн сегодня ни на йоту не раскаивается из-за кражи драгоценностей на сумму почти в два миллиона долларов, как и 60 лет назад, когда она украла свой первый карат. Пейн сейчас находится на скамье подсудимых за кражу кольца с бриллиантом в торговом центре, и режиссеры Кирк Марколина и Мэттью Понд пытаются разглядеть за ее безупречной улыбкой тайны ее ремесла и причины, толкнувшие ее на эту стезю. Это поразительный портрет бунтаря, который бросает вызов предрассудкам общества и выдает свою версию американской мечты.
Доп. информация: DVB-S
Награды: приз зрительских симпатий за лучший документальный фильм Antenna Documentary Festival 2013; приз зрительских симпатий за лучший документальный фильм Austin Film Festival 2013; приз за лучший документальный фильм Ojai Film Festival 2013; приз зрительских симпатий Roxbury International Film Festival 2014.

качество: DVB
формат: MKV
Видео: MPEG Video 2, 720x576@768x576 (4:3), 25 fps, ~2168 kbps avg, 0.209 bit/pixel
Аудио: MPEG Audio 2, 2 ch, 48 kHz, ~192.00 kbps avg

MediaInfo

ОбщееУникальный идентификатор : 200488121058017828775479008212280391434 (0x96D49B8A9F48C129A123DA26AFB3B70A)Полное имя : E:\My Torrents 2\[apreder]The_Life_and_Crimes_of_Doris_Payne(2013)DVB.mkvФормат : MatroskaВерсия формата : Version 2Размер файла : 1,21 ГбайтПродолжительность : 1 ч. 12 м.Режим общего битрейта : ПеременныйОбщий поток : 2408 Кбит/секДата кодирования : UTC 2015-05-17 16:41:09Программа кодирования : mkvmerge v7.9.0 ('Birds') 64bitБиблиотека кодирования : libebml v1.3.1 + libmatroska v1.4.2
ВидеоИдентификатор : 1Формат : MPEG VideoВерсия формата : Version 2Профиль формата : Main@MainПараметр BVOP формата : ДаПараметр матрицы формата : ВыборочнаяПараметр GOP формата : VariableFormat_Settings_PictureStructure : FrameИдентификатор кодека : V_MPEG2Идентификатор кодека/Информация : MPEG 1 or 2 VideoПродолжительность : 1 ч. 12 м.Вид битрейта : ПеременныйБитрейт : 2168 Кбит/секШирина : 720 пикселейВысота : 576 пикселейСоотношение сторон : 4:3Режим частоты кадров : ПостоянныйЧастота кадров : 25,000 кадров/секСтандарт вещания : PALЦветовое пространство : YUVСубдискретизация насыщенности : 4:2:0Битовая глубина : 8 битТип развёртки : ЧересстрочнаяПорядок развёртки : Верхнее поле первоеМетод сжатия : С потерямиБит/(Пиксели*Кадры) : 0.209Временной код первого кадра : 00:00:00:00Оригинал временного кода : Group of pictures headerРазмер потока : 1,09 Гбайт (90%)Default : ДаForced : Нет
АудиоИдентификатор : 2Формат : MPEG AudioВерсия формата : Version 1Профиль формата : Layer 2Идентификатор кодека : A_MPEG/L2Идентификатор кодека/Подсказка : MP2Продолжительность : 1 ч. 12 м.Вид битрейта : ПостоянныйБитрейт : 192 Кбит/секКаналы : 2 каналаЧастота : 48,0 КГцМетод сжатия : С потерямиРазмер потока : 99,0 Мбайт (8%)Язык : RussianDefault : ДаForced : Нет

Скриншоты

Резервные скриншоты

-[2'288]
[teatrix.ru].t11112.torrent 
Торрент: Зарегистрирован [ 2015-12-07 05:05 ] · EB05E7295BBFEE1EBB77CE547B3C3C59EE683A9E

Скачать .torrent

Скачать

13 KB

Статус: проверено
Скачан: 0 раз
Размер: 1.21 GB
terms.php



Быстрый ответ

Имя:

      
Для отправки сообщений необходимо включить JavaScript
Показать сообщения:    

Текущее время: 04-Дек 21:23

Часовой пояс: UTC + 3


Вы можете начинать темы
Вы можете отвечать на сообщения
Вы не можете редактировать свои сообщения
Вы не можете удалять свои сообщения
Вы не можете голосовать в опросах
Вы не можете прикреплять файлы к сообщениям
Вы можете скачивать файлы