Жуков и Рокоссовский. Служили два товарища (Андрей Симонов) [2015, Документальный, познавательный, биография, история, SATRip]


Статистика раздачи [Обновить пиров]
Размер:  494 MB   |    Зарегистрирован:  1 год   |    Скачан:  0 раз

Полного источника не было: Никогда

 
   
 
 
 

[Цитировать]

Жуков и Рокоссовский. Служили два товарища
Дата/Год выпуска: 2015
Страна: Россия, ООО «ЦЛ Кириллица», ТВ Центр
Жанр: Документальный, познавательный, биография, история
Продолжительность: 00:39:00
Перевод: Субтитры
Русские субтитры: нет
Режиссер: Андрей Симонов
Описание: В июне 1945 года Константин Рокоссовский командовал Парадом Победы, а принимал его Георгий Жуков. До этого кульминационного момента пути двух полководцев многократно пересекались, однако во время войны отношения между ними двумя были весьма натянутыми. Это и разница в характерах: Рокоссовский не переносил грубоватость Жукова, его жёсткость в отношении подчинённых. В военной иерархии Жуков был выше Рокоссовского, хотя до войны ситуация была иная – Рокоссовский всегда был начальником у Жукова, но потерял в чинах из-за репрессий – почти три года он провёл в тюремных застенках. У двух военачальников и подход к ведению войны часто был разный. Но в решающие моменты оба проявляли лучшие качества и, каждый по-своему, внесли неоценимый вклад в Победу.
Доп. информация: Участники: Валерий Баринов – актёр, Александр Голобородько – актёр, Эра Жукова – дочь маршала Жукова, Константин Рокоссовский – внук маршала Рокоссовского, Ариадна Рокоссовская – правнучка маршала Рокоссовского, Наталия Тимошенко – невестка маршала Тимошенко, Владимир Дайнес – военный историк и писатель, Борис Соколов – историк и писатель, Алексей Исаев – историк, Алекс Громов – историк и писатель, Валентин Рунов – историк и писатель.
качество: SATRip
формат: AVI
Видео: 704x448 (1.57:1), 25 fps, XviD build 50 ~1630 kbps avg, 0.21 bit/pixel
Аудио: 48 kHz, MPEG Layer 3, 2 ch, ~128.00 kbps avg

MediaInfo

Complete name : C:\Users\Home\Desktop\временная\Жуков и Рокоссовский.Служили два товарища.2015.SATRip.aviFormat : AVIFormat/Info : Audio Video InterleaveFile size : 494 MiBDuration : 39mn 0sOverall bit rate : 1 769 KbpsWriting application : VirtualDubMod 1.5.10.3 | www.virtualdub-fr.org || (build 2550/release)Writing library : VirtualDubMod build 2550/release
VideoID : 0Format : MPEG-4 VisualFormat profile : Advanced Simple@L5Format settings, BVOP : 2Format settings, QPel : NoFormat settings, GMC : No warppointsFormat settings, Matrix : Default (MPEG)Codec ID : XVIDCodec ID/Hint : XviDDuration : 39mn 0sBit rate : 1 631 KbpsWidth : 704 pixelsHeight : 448 pixelsDisplay aspect ratio : 16:10Frame rate : 25.000 fpsColor space : YUVChroma subsampling : 4:2:0Bit depth : 8 bitsScan type : ProgressiveCompression mode : LossyBits/(Pixel*Frame) : 0.207Stream size : 455 MiB (92%)Writing library : XviD 1.2.1 (UTC 2008-12-04)
AudioID : 1Format : MPEG AudioFormat version : Version 1Format profile : Layer 3Codec ID : 55Codec ID/Hint : MP3Duration : 39mn 0sBit rate mode : ConstantBit rate : 128 KbpsChannel count : 2 channelsSampling rate : 48.0 KHzCompression mode : LossyStream size : 35.7 MiB (7%)Alignment : Aligned on interleavesInterleave, duration : 40 ms (1.00 video frame)Interleave, preload duration : 504 msWriting library : LAME3.99rEncoding settings : -m s -V 4 -q 2 -lowpass 17 -b 128

Скриншоты

[teatrix.ru].t11113.torrent 
Торрент: Зарегистрирован [ 2015-12-07 05:05 ] · 9EBA04031BE266D63ECEFABBF177F1805C8F57A6

Скачать .torrent

Скачать

10 KB

Статус: проверено
Скачан: 0 раз
Размер: 494 MB
terms.php



Быстрый ответ

Имя:

      
Для отправки сообщений необходимо включить JavaScript
Показать сообщения:    

Текущее время: 09-Дек 06:51

Часовой пояс: UTC + 3


Вы можете начинать темы
Вы можете отвечать на сообщения
Вы не можете редактировать свои сообщения
Вы не можете удалять свои сообщения
Вы не можете голосовать в опросах
Вы не можете прикреплять файлы к сообщениям
Вы можете скачивать файлы