Прощание (1-3 фильмы) [2015, Документальный, биография, социология, история, SATRip]


Статистика раздачи [Обновить пиров]
Размер:  1.44 GB   |    Зарегистрирован:  11 месяцев 27 дней   |    Скачан:  0 раз

Полного источника не было: Никогда

 
   
 
 
 

[Цитировать]

Прощание (1-3 фильмы)
Дата/Год выпуска: 2015
Страна: Россия, ТВЦ
Жанр: Документальный, биография, социология, история
Продолжительность: 3 x ~ 00:40:00
Перевод: Не требуется
Русские субтитры: нет
Описание: Похороны знаменитого человека – огромное "шоу", сценарий которого всегда невероятно интересен. Хлопоты родных о месте упокоения, детали похоронного ритуала, реакция властей, последние аплодисменты или откровенное злорадство…. В этот момент нередко раскрываются тайны жизни ушедшего...
качество: SATRip
формат: AVI
Видео: 704x448 (1.57:1), 25 fps, XviD build 50 ~1596 kbps avg, 0.20 bit/pixel
Аудио: 48 kHz, MPEG Layer 3, 2 ch, ~128.00 kbps avg

Описание серий

01. Прощание. Людмила Гурченко
Прощание с Людмилой Гурченко побило рекорд по количеству сплетен – гроб несли муж и молодой любовник, накануне она сделала очередную пластическую операцию, её дочь пришла на похороны исключительно из-за наследства, а её бывший муж Иосиф Кобзон придумал причину, чтобы не приходить вообще… Что правда, а что оскорбительная ложь?
02. Прощание. Владимир Высоцкий
По сводкам столичной милиции, 28 июля 1980 года проводить Высоцкого в мир иной пришло... 110 тысяч человек! Манифестация парализовала движение в городе. Это были проводы не просто актёра и поэта, а настоящего кумира. Смерть Высоцкого оставила много вопросов. В дни прощания с Высоцким многие люди говорили, что произошло убийство...
03. Прощание. Людмила Зыкина
Прощание с Людмилой Зыкиной продлили на два дня, и тысячи людей готовы были идти к ней неделю. Россия провожала уникальную певицу, великий голос, своё национальное достояние. А в квартире Зыкиной, в знаменитой высотке на Котельнической набережной, уже собрались многочисленные претенденты на богатое наследство, и началась отвратительная свара...

MediaInfo

Complete name : C:\Users\Home\Desktop\Прощание.2015.SATRip\Прощание.Людмила Зыкина.2015.SATRip.aviFormat : AVIFormat/Info : Audio Video InterleaveFile size : 505 MiBDuration : 40mn 43sOverall bit rate : 1 735 KbpsWriting application : VirtualDubMod 1.5.10.3 | www.virtualdub-fr.org || (build 2550/release)Writing library : VirtualDubMod build 2550/release
VideoID : 0Format : MPEG-4 VisualFormat profile : Advanced Simple@L5Format settings, BVOP : 2Format settings, QPel : NoFormat settings, GMC : No warppointsFormat settings, Matrix : Default (MPEG)Codec ID : XVIDCodec ID/Hint : XviDDuration : 40mn 43sBit rate : 1 597 KbpsWidth : 704 pixelsHeight : 448 pixelsDisplay aspect ratio : 16:10Frame rate : 25.000 fpsColor space : YUVChroma subsampling : 4:2:0Bit depth : 8 bitsScan type : ProgressiveCompression mode : LossyBits/(Pixel*Frame) : 0.203Stream size : 465 MiB (92%)Writing library : XviD 1.2.1 (UTC 2008-12-04)
AudioID : 1Format : MPEG AudioFormat version : Version 1Format profile : Layer 3Codec ID : 55Codec ID/Hint : MP3Duration : 40mn 43sBit rate mode : ConstantBit rate : 128 KbpsChannel count : 2 channelsSampling rate : 48.0 KHzCompression mode : LossyStream size : 37.3 MiB (7%)Alignment : Aligned on interleavesInterleave, duration : 40 ms (1.00 video frame)Interleave, preload duration : 504 msWriting library : LAME3.99rEncoding settings : -m s -V 4 -q 2 -lowpass 17 -b 128

Скриншоты

[teatrix.ru].t11114.torrent 
Торрент: Зарегистрирован [ 2015-12-07 05:05 ] · F3FE1CDCEC537AA541ADA29E5AE3CB838F51E9BB

Скачать .torrent

Скачать

29 KB

Статус: проверено
Скачан: 0 раз
Размер: 1.44 GB
terms.php



Быстрый ответ

Имя:

      
Для отправки сообщений необходимо включить JavaScript
Показать сообщения:    

Текущее время: 03-Дек 18:38

Часовой пояс: UTC + 3


Вы можете начинать темы
Вы можете отвечать на сообщения
Вы не можете редактировать свои сообщения
Вы не можете удалять свои сообщения
Вы не можете голосовать в опросах
Вы не можете прикреплять файлы к сообщениям
Вы можете скачивать файлы