Вячеслав Тихонов. Иволга (Петр Шепотинник) [2003-2014 г., Документальный, DVB]


Статистика раздачи [Обновить пиров]
Размер:  927 MB   |    Зарегистрирован:  11 месяцев 26 дней   |    Скачан:  0 раз

Полного источника не было: Никогда

 
   
 
 
 

[Цитировать]

Вячеслав Тихонов. Иволга
Страна: Россия
Жанр: Документальное кино
Автор и режиссер: Петр Шепотинник
Продолжительность: 00:36:07
Год выпуска: 2003-2014 г.
Описание: Коллекция Петра Шепотинника. Цикл документальных фильмов.
Петр Шепотинник – российский режиссер, публицист, консультант Венецианского биеннале по вопросам кино, автор и ведущий телепрограммы "Кинескоп", лауреат международных и отечественных теле- и кинофестивалей. Автор документальных фильмов-портретов о Владимире Высоцком, Андрее Тарковском, Алексее Баталове, Льве Дурове, Отаре Иоселиани, Алексее Германе, Юрии Любимове.
По словам Шепотинника, галерея портретов знаменитых людей под общим названием "Коллекция Петра Шепотинника" выросла из грандиозного архива и видеоматериалов, который создавался почти два десятилетия, начиная с 1990-х годов. Автора и режиссера всегда интересовала человеческая личность российских интеллигентов во времени, в ее соприкосновении с искусством.
Вячеслав Тихонов. Иволга
Он просыпался знаменитым несколько раз, страна полюбила его сразу, приняла за своего после фильмов Станислава Ростоцкого, Сергея Бондарчука, а после выхода сериала "17 мгновений весны" его слава достигла такого апогея, который превзошел все мыслимые ожидания. Все, что делал удивительный актер Вячеслав Тихонов, так глубоко вошло в наш общий личный опыт, что существует там постоянно, на каких-то особых, домашних правах.
Качество: DVB
Контейнер: MPEG-TS
Видео кодек: MPEG2
Аудио кодек: MP2
Видео: 720х576 25.000 fps 3215 Кбит/сек, 0.310 bit/pixel
Аудио: 2 канала, 192 Кбит/сек, 48,0 КГц,

Скриншоты

МИ

Общее
Идентификатор : 1 (0x1)
Полное имя : D:\Вячеслав Тихонов. Иволга _bySat.ts
Формат : MPEG-TS
Размер файла : 927 Мбайт
Продолжительность : 36 м.
Режим общего битрейта : Переменный
Общий поток : 3586 Кбит/сек
Видео
Идентификатор : 324 (0x144)
Идентификатор меню : 1 (0x1)
Формат : MPEG Video
Версия формата : Version 2
Профиль формата : Main@Main
Параметр BVOP формата : Да
Параметр матрицы формата : Выборочная
Параметр GOP формата : Variable
Format_Settings_PictureStructure : Frame
Идентификатор кодека : 2
Продолжительность : 36 м.
Вид битрейта : Переменный
Битрейт : 3215 Кбит/сек
Максимальный битрейт : 15,0 Мбит/сек
Ширина : 720 пикселей
Высота : 576 пикселей
Соотношение сторон : 4:3
Частота кадров : 25,000 кадров/сек
Стандарт вещания : PAL
Цветовое пространство : YUV
Субдискретизация насыщенности : 4:2:0
Битовая глубина : 8 бит
Тип развёртки : Чересстрочная
Порядок развёртки : Верхнее поле первое
Метод сжатия : С потерями
Бит/(Пиксели*Кадры) : 0.310
Временной код первого кадра : 00:00:00:00
Оригинал временного кода : Group of pictures header
Размер потока : 831 Мбайт (90%)
Gop_OpenClosed_FirstFrame : Closed
Аудио
Идентификатор : 408 (0x198)
Идентификатор меню : 1 (0x1)
Формат : MPEG Audio
Версия формата : Version 1
Профиль формата : Layer 2
Идентификатор кодека : 3
Продолжительность : 36 м.
Вид битрейта : Постоянный
Битрейт : 192 Кбит/сек
Каналы : 2 канала
Частота : 48,0 КГц
Метод сжатия : С потерями
Размер потока : 49,6 Мбайт (5%)
Язык : Russian
Текст
Идентификатор : 508 (0x1FC)-100
Идентификатор меню : 1 (0x1)
Формат : Teletext
Язык : Russian
Меню
Идентификатор : 256 (0x100)
Идентификатор меню : 1 (0x1)
Продолжительность : 36 м.
Список : 324 (0x144) (MPEG Video) / 408 (0x198) (MPEG Audio, Russian) / 508 (0x1FC) ()
Язык : / Russian
[teatrix.ru].t11115.torrent 
Торрент: Зарегистрирован [ 2015-12-07 05:05 ] · 688209139C39D499F49C56D68E96CEF554DE487A

Скачать .torrent

Скачать

19 KB

Статус: проверено
Скачан: 0 раз
Размер: 927 MB
terms.php



Быстрый ответ

Имя:

      
Для отправки сообщений необходимо включить JavaScript
Показать сообщения:    

Текущее время: 02-Дек 21:15

Часовой пояс: UTC + 3


Вы можете начинать темы
Вы можете отвечать на сообщения
Вы не можете редактировать свои сообщения
Вы не можете удалять свои сообщения
Вы не можете голосовать в опросах
Вы не можете прикреплять файлы к сообщениям
Вы можете скачивать файлы