Гагарин (Алексей Китайцев) [2015, Документальный, SATRip]


Статистика раздачи [Обновить пиров]
Размер:  700 MB   |    Зарегистрирован:  11 месяцев   |    Скачан:  0 раз

Полного источника не было: Никогда

 
   
 
 
 

[Цитировать]

Гагарин
Дата/Год выпуска: 2015
Страна: Россия
Жанр: Документальный
Продолжительность: 00:52:02
Перевод: Не требуется
Русские субтитры: нет
Оригинальная аудиодорожка: русский
Режиссер: Алексей Китайцев
Телеканал: Культура
Описание: Ему рукоплескала вся планета. Мировые звезды выстраивались в очередь, чтобы взять у него автограф. Коронованные особы просили разрешения сфотографироваться. А он мечтал лишь об одном – летать, открывать невиданные миры. В фильм вошли несколько неизвестных историй, рассказанных друзьями Ю. Гагарина и очевидцами событий, произошедших после той самой минуты, которой он посвятил всю свою жизнь. Звучат отрывки из воспоминаний и писем космонавта.
качество: SATRip
формат: AVI
Видео: 704x400 (1.76:1), 25 fps, XviD build 64 ~1742 kbps avg, 0.25 bit/pixel
Аудио: 48 kHz, MPEG Layer 3, 2 ch, ~128.00 kbps avg

MediaInfo

Формат : AVIФормат/Информация : Audio Video InterleaveРазмер файла : 700 МбайтПродолжительность : 52 м.Общий поток : 1881 Кбит/секБиблиотека кодирования : VirtualDub build 34670/release
ВидеоИдентификатор : 0Формат : MPEG-4 VisualПрофиль формата : Advanced Simple@L5Параметр BVOP формата : 2Параметр QPel формата : НетПараметр GMC формата : Без точки переходаПараметр матрицы формата : Default (MPEG)Идентификатор кодека : XVIDИдентификатор кодека/Подсказка : XviDПродолжительность : 52 м.Битрейт : 1743 Кбит/секШирина : 704 пикселяВысота : 400 пикселейСоотношение сторон : 16:9Частота кадров : 25,000 кадров/секЦветовое пространство : YUVСубдискретизация насыщенности : 4:2:0Битовая глубина : 8 битТип развёртки : ПрогрессивнаяМетод сжатия : С потерямиБит/(Пиксели*Кадры) : 0.248Размер потока : 649 Мбайт (93%)Библиотека кодирования : XviD 64
АудиоИдентификатор : 1Формат : MPEG AudioВерсия формата : Version 1Профиль формата : Layer 3Режим : Joint stereoРасширение режима : MS StereoИдентификатор кодека : 55Идентификатор кодека/Подсказка : MP3Продолжительность : 52 м.Вид битрейта : ПостоянныйБитрейт : 128 Кбит/секКаналы : 2 каналаЧастота : 48,0 КГцМетод сжатия : С потерямиРазмер потока : 47,6 Мбайт (7%)Выравнивание : Разделение по промежуткамПродолжительность промежутка : 40 мс. (1,00 видеокадр)Время предзагрузки промежутка : 500 мс.

Скриншоты

[teatrix.ru].t11116.torrent 
Торрент: Зарегистрирован [ 2015-12-07 05:05 ] · 71273F856C514588C5D02DB14382C92C411EE36A

Скачать .torrent

Скачать

14 KB

Статус: проверено
Скачан: 0 раз
Размер: 700 MB
terms.php



Быстрый ответ

Имя:

      
Для отправки сообщений необходимо включить JavaScript
Показать сообщения:    

Текущее время: 06-Дек 17:05

Часовой пояс: UTC + 3


Вы можете начинать темы
Вы можете отвечать на сообщения
Вы не можете редактировать свои сообщения
Вы не можете удалять свои сообщения
Вы не можете голосовать в опросах
Вы не можете прикреплять файлы к сообщениям
Вы можете скачивать файлы