Станислав Говорухин. Место встречи... (Алексей Аленин) [2011, Документальный, DVB]


Статистика раздачи [Обновить пиров]
Размер:  1.39 GB   |    Зарегистрирован:  1 год   |    Скачан:  0 раз

Полного источника не было: Никогда

 
   
 
 
 

[Цитировать]

Станислав Говорухин
Место встречи...
- Год выпуска: 2011
Страна: Россия
Жанр: документальный
Продолжительность: 00:51:05
Перевод: не требуется-Режиссер: Алексей Аленин-Описание: Народный артист России Станислав Говорухин (лауреат международных кинофестивалей в Каире, Варне, Монтре, награжден премиями Ника и Кинотавр) из числа тех немногих людей искусства, которых принято называть "живыми классиками", хотя сам Станислав Сергеевич подобные комплименты не жалует. Фильм основан на монологе главного героя и комментариях членов его семьи. Станислав Говорухин рассказывает о своих фильмах и любимых артистах. Он подчеркивает, что всегда снимал только то, что хотел, и к чему лежала душа. Первый фильм Станислава Сергеевича "Вертикаль" был снят в 1967 году. С тех пор их создано немало и каждый из них – событие.
В этом фильме режиссер с удовольствием вспоминает о своих киноработах: самые яркие эпизоды, связанные со съемками, с поездками по стране. Глядя на экран, Станислав Сергеевич, через фрагменты собственных фильмов, вспоминает также о времени и о себе. "Вертикаль" прежде всего связана с Высоцким. Они познакомились на картине, куда молодой режиссер пригласил такого же молодого актера. Им еще не было и тридцати. Молодые, сильные мужики с неотразимым обаянием. Они могли горы свернуть, с таким задором, легкостью и весельем снимали кино. В качестве дублера-альпиниста Говорухин работал в кадре сам, он неплохо владел профессией и считал, что так ему будет спокойнее. Если что – отвечать придется только за себя. Легендарный фильм "Место встречи изменить нельзя" уже больше тридцати лет называют классикой, шедевром кинодетектива. Картина по-прежнему собирает рекордную зрительскую аудиторию. Но сегодня Станислав Сергеевич неожиданно говорит, что не слишком любит свою самую известную киноленту. И мы узнаем – почему. "Не хлебом единым" – о временах репрессий, когда любого человека могли уничтожить мгновенно и без всяких объяснений – это, в том числе, и его собственное воспоминание о детстве, юности. Его отец, донской казак, был арестован по доносу и погиб в сталинских лагерях. Мать была портнихой, семья жила в страшной нищете...-Качество: DVB
Формат: MPEG-PS
Видео: MPEG2, 720x576@768x576 (4:3), 25 fps, 3639 Kbps
Аудио: MP2, 48 KHz, 2 ch, 192 Kbps-

MediaInfo

GeneralComplete name : H:\Станислав Говорухин. Место встречи... (2011) [DVB].mpgFormat : MPEG-PSFile size : 1.39 GiBDuration : 51mn 5sOverall bit rate mode : VariableOverall bit rate : 3 909 Kbps
VideoID : 224 (0xE0)Format : MPEG VideoFormat version : Version 2Format profile : Main@MainFormat settings, BVOP : YesFormat settings, Matrix : CustomFormat settings, GOP : M=3, N=12Format settings, picture st : FrameDuration : 51mn 5sBit rate mode : VariableBit rate : 3 639 KbpsMaximum bit rate : 5 000 KbpsWidth : 720 pixelsHeight : 576 pixelsDisplay aspect ratio : 4:3Frame rate : 25.000 fpsStandard : PALColor space : YUVChroma subsampling : 4:2:0Bit depth : 8 bitsScan type : InterlacedScan order : Top Field FirstCompression mode : LossyBits/(Pixel*Frame) : 0.351Time code of first frame : 00:00:00:00Time code source : Group of pictures headerGOP, Open/Closed : OpenStream size : 1.30 GiB (93%)GOP, Open/Closed of first f : Closed
AudioID : 192 (0xC0)Format : MPEG AudioFormat version : Version 1Format profile : Layer 2Duration : 51mn 4sBit rate mode : ConstantBit rate : 192 KbpsChannel(s) : 2 channelsSampling rate : 48.0 KHzCompression mode : LossyStream size : 70.2 MiB (5%)
[teatrix.ru].t11118.torrent 
Торрент: Зарегистрирован [ 2015-12-07 05:05 ] · 6856B5E7DE40CE052372FA14562B3F4EFB04ABA8

Скачать .torrent

Скачать

14 KB

Статус: проверено
Скачан: 0 раз
Размер: 1.39 GB
terms.php



Быстрый ответ

Имя:

      
Для отправки сообщений необходимо включить JavaScript
Показать сообщения:    

Текущее время: 08-Дек 17:23

Часовой пояс: UTC + 3


Вы можете начинать темы
Вы можете отвечать на сообщения
Вы не можете редактировать свои сообщения
Вы не можете удалять свои сообщения
Вы не можете голосовать в опросах
Вы не можете прикреплять файлы к сообщениям
Вы можете скачивать файлы