Непридуманные истории: Индиана Джонс, Джеймс Бонд, Аль Капоне и др. (15 эпизодов) / The True Story / Geschichte made in Hollywood (Дэвид Хикман / David Hickman) [2008 - 2010, документальный, биографический, DVB] DVO (24ДОК)


Статистика раздачи [Обновить пиров]
Размер:  12.21 GB   |    Зарегистрирован:  1 год   |    Скачан:  0 раз

Полного источника не было: Никогда

 
   
 
 
 

[Цитировать]

Непридуманные истории
The True Story- Дата/Год выпуска: 2008 - 2010
Страна: Великобритания
Жанр: документальный, биографический
Продолжительность: 11:31:51 (15 эпизодов по ~00:46:00)
Перевод: Профессиональный (двухголосый закадровый)
Доп. инфо о переводе: 24ДОК
Русские субтитры: нетРежиссер: Дэвид Хикман / David Hickman, Расселл Ингланд / Russell England, Крис Митчелл / Chris Mitchell, Вирджиния Куинн / Virginia Queen, Шон Смит / Sean Smith, Стив Уэбб / Steve Webb, Стэн Гриффин / Stan Griffin, Пол Нельсон / Paul Nelson, Томас Вайнер / Thomas Viner, Том Стабберфилд / Tom Stubberfield, Стивен Марш / Stephen Marsh, Энди Уэбб / Andy Webb
Телеканал: 24ДОК
Описание: Британское телевидение представляет цикл, рассказывающий о судьбе реальных персонажей, послуживших прототипами героев известных кинолент.
Доп. информация: DVB-S. Цикл выходил на протяжении десятилетия (2003-2013 гг). Всего в нем 46 эпизодов. Канал не анонсирует показ всего цикла.

качество: DVB
формат: MKV
Видео: MPEG Video 2, 720x576@768x576 (4:3), 25 fps, ~2195 kbps avg, 0.212 bit/pixel
Аудио: MPEG Audio 2, 2 ch, 48 kHz, ~192.00 kbps avg

Список выпусков/серий

01. Индиана Джонс / Indiana Jones (2008)02. Джеймс Бонд / James Bond (2008)03. Побег из Алькатраса / Escape from Alcatraz (2008)04. Аль Капоне и Неприкасаемые / Al Capone & the Untouchables (2008)05. Ужас Амитвилля / The Amityville Horror (2008)-06. Охота за "Красным Октябрем" / The Hunt for the Red October (2009)07. Казино / Casino (2009)08. Изгоняющий Дьявола / The Exorcist (2009)09. Идентификация Борна / Bourne Identity (2009)10. Молчание ягнят / The Silence of the Lambs (2009)-11. Пираты Карибского моря / Pirates of the Caribbean (2010)12. Титаник / Titanic (2010)13. Парк Юрского периода / Jurassic Park (2010)14. Челюсти / Jaws (2010)15. Гладиатор / Gladiator (2010)

MediaInfo

ОбщееУникальный идентификатор : 216313118045245887134507843813102004352 (0xA2BC6421CC31E0988321CCB5390B2880)Полное имя : E:\My Torrents 2\[apreder]The_True_Story\01. Indiana_Jones(2008)DVB.mkvФормат : MatroskaВерсия формата : Version 2Размер файла : 810 МбайтПродолжительность : 46 м.Режим общего битрейта : ПеременныйОбщий поток : 2435 Кбит/секДата кодирования : UTC 2015-03-25 14:59:16Программа кодирования : mkvmerge v7.7.0 ('Six Voices') 64bit built on Feb 28 2015 23:39:33Библиотека кодирования : libebml v1.3.1 + libmatroska v1.4.2
ВидеоИдентификатор : 1Формат : MPEG VideoВерсия формата : Version 2Профиль формата : Main@MainПараметр BVOP формата : ДаПараметр матрицы формата : ВыборочнаяПараметр GOP формата : VariableFormat_Settings_PictureStructure : FrameИдентификатор кодека : V_MPEG2Идентификатор кодека/Информация : MPEG 1 or 2 VideoПродолжительность : 46 м.Вид битрейта : ПеременныйБитрейт : 2195 Кбит/секШирина : 720 пикселейВысота : 576 пикселейСоотношение сторон : 4:3Режим частоты кадров : ПостоянныйЧастота кадров : 25,000 кадров/секСтандарт вещания : PALЦветовое пространство : YUVСубдискретизация насыщенности : 4:2:0Битовая глубина : 8 битТип развёртки : ЧересстрочнаяПорядок развёртки : Верхнее поле первоеМетод сжатия : С потерямиБит/(Пиксели*Кадры) : 0.212Временной код первого кадра : 00:00:00:00Оригинал временного кода : Group of pictures headerРазмер потока : 730 Мбайт (90%)Default : ДаForced : НетGop_OpenClosed_FirstFrame : Closed
АудиоИдентификатор : 2Формат : MPEG AudioВерсия формата : Version 1Профиль формата : Layer 2Идентификатор кодека : A_MPEG/L2Идентификатор кодека/Подсказка : MP2Продолжительность : 46 м.Вид битрейта : ПостоянныйБитрейт : 192 Кбит/секКаналы : 2 каналаЧастота : 48,0 КГцМетод сжатия : С потерямиРазмер потока : 63,8 Мбайт (8%)Язык : RussianDefault : ДаForced : Нет

Скриншоты


Резервные скриншоты



-

Внимание! Раздача ведётся путём добавления новых выпусков

Внимание! Раздача ведётся путём добавления новых выпусков; при каждом добавлении создаётся новый торрент. Чтобы начать докачку нового выпуска, пользователям необходимо сделать следующее:
(1) остановить скачивание,
(2) удалить старый торрент у себя из клиента (старые серии удалять не надо),
(3) скачать новый торрент и запустить его у себя в клиенте вместо старого, при этом указать клиенту путь в старую папку куда и должно происходить скачивание новых выпусков.
Ваш клиент при этом должен произвести хеширование (проверку) старой папки (если не производит сам - помогите ему сделать это). В результате он будет докачивать только те выпуски, которых у Вас ещё нет. Старые выпуски при этом не удаляются, а продолжают раздаваться!
Eсли Вы уже удалили старые выпуски, то предотвратить их повторную закачку можно, сняв галочки в соответствующих местах при запуске нового торрента. По возможности, желательно не удалять старые выпуски как можно дольше, чтобы релизёр не только продолжал раздавать старые выпуски, но и смог сконцентрироваться на новых.
-[2'179]
[teatrix.ru].t11119.torrent 
Торрент: Зарегистрирован [ 2015-12-07 05:05 ] · 8F5496F5200EBDC24406298C5390493EAFE0020C

Скачать .torrent

Скачать

62 KB

Статус: проверено
Скачан: 0 раз
Размер: 12.21 GB
terms.php



Быстрый ответ

Имя:

      
Для отправки сообщений необходимо включить JavaScript
Показать сообщения:    

Текущее время: 08-Дек 19:08

Часовой пояс: UTC + 3


Вы можете начинать темы
Вы можете отвечать на сообщения
Вы не можете редактировать свои сообщения
Вы не можете удалять свои сообщения
Вы не можете голосовать в опросах
Вы не можете прикреплять файлы к сообщениям
Вы можете скачивать файлы