Эйлин: Жизнь и смерть серийного убийцы / Aileen: Life and Death of a Serial Killer (Ник Брумфилд, Джоан Черчилль / Nick Broomfield, Joan Churchill) [2003, Документальный, биография, экранизация, WEBRip]


Статистика раздачи [Обновить пиров]
Размер:  1.13 GB   |    Зарегистрирован:  11 месяцев   |    Скачан:  0 раз

Полного источника не было: Никогда

 
   
 
 
 

[Цитировать]

Эйлин: Жизнь и смерть серийного убийцы / Aileen: Life and Death of a Serial Killer
Дата/Год выпуска: 2003
Страна: Великобритания, США, Lafayette Films
Жанр: Документальный, биография, экранизация
Продолжительность: 01:26:49
Перевод: Профессиональный (двухголосый закадровый)
Режиссер: Ник Брумфилд, Джоан Черчилль / Nick Broomfield, Joan Churchill
Описание: Второй документальный фильм Ника Брумфилда об Эйлин Кэрол Уорнос, проститутке с шоссе, которая была казнена в 2002 году за убийство семи мужчин во Флориде. Вторая часть включает в себя показания автора фильма на суде Уорнос.
Релиз: Первоисточник (alishka2003)
Сэипл: http://multi-up.com/993999
Доп. информация: Фильм первый - Продажа серийного убийцы http://teatrix.ru/viewtopic.php?t=11541
Торрент файл заменен: 29.03.2015
качество: WEBRip
формат: AVI
Видео: XviD, 1526 Кбит/с, 640x480, 25 кадров/сек
Аудио: MP3, 2 ch, 256 Кбит/с, 44,1 КГц

MediaInfo

ОбщееПолное имя : D:\KINO\Eylin.Jizn.i.smert.ubiysi.2003.XviD.WEBRip.aviФормат : AVIФормат/Информация : Audio Video InterleaveПрофиль формата : OpenDMLРазмер файла : 1,13 ГбайтПродолжительность : 1 ч. 29 м.Общий поток : 1797 Кбит/секПрограмма кодирования : Lavf54.63.104
ВидеоИдентификатор : 0Формат : xvidИдентификатор кодека : xvidПродолжительность : 1 ч. 29 м.Битрейт : 1526 Кбит/секШирина : 640 пикселейВысота : 480 пикселейСоотношение сторон : 4:3Частота кадров : 25,000 кадров/секБит/(Пиксели*Кадры) : 0.199Размер потока : 980 Мбайт (85%)
АудиоИдентификатор : 1Формат : MPEG AudioВерсия формата : Version 1Профиль формата : Layer 3Режим : Joint stereoИдентификатор кодека : 55Идентификатор кодека/Подсказка : MP3Продолжительность : 1 ч. 29 м.Вид битрейта : ПостоянныйБитрейт : 256 Кбит/секКаналы : 2 каналаЧастота : 44,1 КГцМетод сжатия : С потерямиРазмер потока : 164 Мбайт (14%)Выравнивание : Соединение по промежуткамПродолжительность промежутка : 26 мс. (0,65 видеокадр)Библиотека кодирования : LAME3.99.5

Скриншоты

[teatrix.ru].t11120.torrent 
Торрент: Зарегистрирован [ 2015-12-07 05:05 ] · C134C07F5C3DA63B26D07664D004C4B8F7846639

Скачать .torrent

Скачать

12 KB

Статус: проверено
Скачан: 0 раз
Размер: 1.13 GB
terms.php



Быстрый ответ

Имя:

      
Для отправки сообщений необходимо включить JavaScript
Показать сообщения:    

Текущее время: 05-Дек 17:36

Часовой пояс: UTC + 3


Вы можете начинать темы
Вы можете отвечать на сообщения
Вы не можете редактировать свои сообщения
Вы не можете удалять свои сообщения
Вы не можете голосовать в опросах
Вы не можете прикреплять файлы к сообщениям
Вы можете скачивать файлы