Слободан Милошевич.Удар властью (Телеканал ТВЦ) [2015, Документальный фильм, DVB]


Статистика раздачи [Обновить пиров]
Размер:  1.01 GB   |    Зарегистрирован:  11 месяцев 27 дней   |    Скачан:  0 раз

Полного источника не было: Никогда

 
   
 
 
 

[Цитировать]

Слободан Милошевич.Удар властью
Дата/Год выпуска: 2015
Страна: Россия
Жанр: Документальный фильм
Продолжительность: 00:40:19
Перевод: Не требуется
Русские субтитры: нет
Режиссер: Телеканал ТВЦ
Телеканал: ТВ Центр – International
Описание: 16 лет назад, 24 марта 1999 года войска НАТО начали бомбёжки Югославии… Так закончился "роман" с Западом Слободана Милошевича, который много лет пытался с ним "договориться", а в итоге его страна и он сам были просто раздавлены. Одни называют его "национальным героем", другие – "серийным убийцей". И те, и другие уверены, что он не умер, а был убит...
Сэмпл: https://www.sendspace.com/file/4r04kj
качество: DVB
формат: MPG
Видео: MPEG2 720:576 4:3 3400 Кбит/сек 25,000 кадров/сек
Аудио: MPEG Audio 128 Кбит/сек 48,0 КГц 2 канала

MediaInfo

ОбщееПолное имя : Удар властью\Слободан Милошевич.mpgФормат : MPEG-PSРазмер файла : 1,01 ГбайтПродолжительность : 40 м.Общий поток : 3574 Кбит/сек
ВидеоИдентификатор : 224 (0xE0)Формат : MPEG VideoВерсия формата : Version 2Профиль формата : Main@MainПараметр BVOP формата : ДаПараметр матрицы формата : ВыборочнаяПараметр GOP формата : M=3, N=24Продолжительность : 40 м.Битрейт : 3400 Кбит/секШирина : 720 пикселейВысота : 576 пикселейСоотношение сторон : 4:3Частота кадров : 25,000 кадров/секСтандарт вещания : PALЦветовое пространство : YUVСубдискретизация насыщенности : 4:2:0Битовая глубина : 8 битТип развёртки : ЧересстрочнаяПорядок развёртки : Верхнее поле первоеМетод сжатия : С потерямиБит/(Пиксели*Кадры) : 0.328Временной код первого кадра : 00:00:00:00Оригинал временного кода : Group of pictures headerРазмер потока : 973 Мбайт (94%)
АудиоИдентификатор : 192 (0xC0)Формат : MPEG AudioВерсия формата : Version 1Профиль формата : Layer 2Продолжительность : 40 м.Вид битрейта : ПостоянныйБитрейт : 128 Кбит/секКаналы : 2 каналаЧастота : 48,0 КГцМетод сжатия : С потерямиЗадержка видео : 22 мс.Размер потока : 36,9 Мбайт (4%)

Скриншоты

Запись потока *.ts произведена тюнером цифрового телевидения. В связи с тем, что не все плееры воспроизводят поток *.ts (MPEG-TS) , в данном видеофайле мной был сделан ремукс потока *.ts (MPEG-TS) в *.mpg (MPEG-PS) программой VideoReDo.
[teatrix.ru].t11121.torrent 
Торрент: Зарегистрирован [ 2015-12-07 05:05 ] · 5F5B0F7352B7CEF78538B9219DDBF050F5614DF3

Скачать .torrent

Скачать

11 KB

Статус: проверено
Скачан: 0 раз
Размер: 1.01 GB
terms.php



Быстрый ответ

Имя:

      
Для отправки сообщений необходимо включить JavaScript
Показать сообщения:    

Текущее время: 04-Дек 02:57

Часовой пояс: UTC + 3


Вы можете начинать темы
Вы можете отвечать на сообщения
Вы не можете редактировать свои сообщения
Вы не можете удалять свои сообщения
Вы не можете голосовать в опросах
Вы не можете прикреплять файлы к сообщениям
Вы можете скачивать файлы