Ким Чен Ир. Запрещенная биография / Kim Jong-il. The Forbidden Biography (Энтони Дюфур / Anthony Dufour) [2010, документальный, Новое время, DVB] DVO (Первый канал)


Статистика раздачи [Обновить пиров]
Размер:  1.25 GB   |    Зарегистрирован:  11 месяцев 27 дней   |    Скачан:  0 раз

Полного источника не было: Никогда

 
   
 
 
 

[Цитировать]

Ким Чен Ир. Запрещенная биография
Kim Jong-il. The Forbidden Biography- Дата/Год выпуска: 2010
Страна: Франция, Швейцария
Жанр: документальный, Новое время
Продолжительность: 00:52:37
Перевод: Профессиональный (двухголосый закадровый)
Доп. инфо о переводе: ЗАО "Первый канал. Всемирная сеть"
Русские субтитры: нет
Режиссер: Энтони Дюфур / Anthony Dufour
Телеканал: Время: далекое и близкоеОписание: Ким Ир Сен, живой Бог Северной Кореи, основатель страны. Он пришел к власти в конце Второй Мировой войны и за сорок лет основал уникальный в своём роде государственный режим. Он является единственным коммунистическим диктатором в мире, передавшим власть своим наследникам. Коммунистическая империя Ким Ир Сена, его сына Ким Чен Ира и его внука Ким Чен Ына.
Народ Северной Кореи вымирает в прямом смысле от хронического недоедания и даже полного голода. А весь мир на протяжении многих лет с опасением наблюдает за руководством КНДР, заявившем в 2005 году о создании в стране ядерного оружия. Ядерный заряд — мощное оружие шантажа и запугивания. (анонс канала "Время")
Доп. информация: DVB-S

качество: DVB
формат: MKV
Видео: MPEG Video 2, 720x576@768x576 (4:3), 25 fps, ~3143 kbps avg, 0.303 bit/pixel
Аудио: MPEG Audio 2, 2 ch, 48 kHz, ~192.00 kbps avg

MediaInfo

ОбщееУникальный идентификатор : 195824458431395275727847538322841561936 (0x93526B38AE8272F982D68304405C6B50)Полное имя : E:\My Torrents 2\[apreder]Kim_Jong-il_The_Forbidden_Biography(2010)DVB.mkvФормат : MatroskaВерсия формата : Version 2Размер файла : 1,25 ГбайтПродолжительность : 52 м.Режим общего битрейта : ПеременныйОбщий поток : 3403 Кбит/секДата кодирования : UTC 2015-02-22 13:34:35Программа кодирования : mkvmerge v7.6.0 ('Garden of Dreams') 64bit built on Feb 8 2015 13:04:34Библиотека кодирования : libebml v1.3.1 + libmatroska v1.4.2
ВидеоИдентификатор : 1Формат : MPEG VideoВерсия формата : Version 2Профиль формата : Main@MainПараметр BVOP формата : ДаПараметр матрицы формата : ВыборочнаяПараметр GOP формата : M=3, N=12Format_Settings_PictureStructure : FrameИдентификатор кодека : V_MPEG2Идентификатор кодека/Информация : MPEG 1 or 2 VideoПродолжительность : 52 м.Вид битрейта : ПеременныйБитрейт : 3143 Кбит/секШирина : 720 пикселейВысота : 576 пикселейСоотношение сторон : 4:3Режим частоты кадров : ПостоянныйЧастота кадров : 25,000 кадров/секСтандарт вещания : PALЦветовое пространство : YUVСубдискретизация насыщенности : 4:2:0Битовая глубина : 8 битТип развёртки : ЧересстрочнаяПорядок развёртки : Верхнее поле первоеМетод сжатия : С потерямиБит/(Пиксели*Кадры) : 0.303Временной код первого кадра : 00:00:00:00Оригинал временного кода : Group of pictures headerРазмер потока : 1,16 Гбайт (92%)Default : ДаForced : НетGop_OpenClosed_FirstFrame : Closed
АудиоИдентификатор : 2Формат : MPEG AudioВерсия формата : Version 1Профиль формата : Layer 2Идентификатор кодека : A_MPEG/L2Идентификатор кодека/Подсказка : MP2Продолжительность : 52 м.Вид битрейта : ПостоянныйБитрейт : 192 Кбит/секКаналы : 2 каналаЧастота : 48,0 КГцМетод сжатия : С потерямиРазмер потока : 72,3 Мбайт (6%)Язык : RussianDefault : ДаForced : Нет

Скриншоты


Резервные скриншоты


-[2'132]
[teatrix.ru].t11124.torrent 
Торрент: Зарегистрирован [ 2015-12-07 05:05 ] · DFA29F857CEBC77F536D900AC83551504407B96C

Скачать .torrent

Скачать

13 KB

Статус: проверено
Скачан: 0 раз
Размер: 1.25 GB
terms.php



Быстрый ответ

Имя:

      
Для отправки сообщений необходимо включить JavaScript
Показать сообщения:    

Текущее время: 04-Дек 04:52

Часовой пояс: UTC + 3


Вы можете начинать темы
Вы можете отвечать на сообщения
Вы не можете редактировать свои сообщения
Вы не можете удалять свои сообщения
Вы не можете голосовать в опросах
Вы не можете прикреплять файлы к сообщениям
Вы можете скачивать файлы