Анатолий Кторов. Первый среди равных (Елена Никитан) [2008, Документальный, биография, театр, кинематограф, SATRip]


Статистика раздачи [Обновить пиров]
Размер:  548 MB   |    Зарегистрирован:  1 год   |    Скачан:  0 раз

Полного источника не было: Никогда

 
   
 
 
 

[Цитировать]

Анатолий Кторов. Первый среди равных
Дата/Год выпуска: 2008
Страна: Россия, ГТРК "Культура"
Жанр: Документальный, биография, театр, кинематограф
Продолжительность: 00:38:58
Перевод: Не требуется
Русские субтитры: нет
Режиссер: Елена Никитан
Описание: Галантный авантюрист в фильмах Якова Протазанова, чудаковатый и проницательный князь Николай Андреевич Болконский в экранизации романа Льва Николаевича Толстого "Война и мир", ироничный и мудрый Бернард Шоу в спектакле "Милый лжец" по пьесе Килти во МХАТе имени Горького. Обаяние, талант и мастерство сделали Анатолия Петровича Кторова одним из выдающихся актеров театра и кино. В программе участвуют: Ирина Мирошниченко, Борис Любимов, Игорь Александров (фотограф МХТ имени А.Чехова). Включены записи воспоминаний Ангелины Степановой, Алексея Грибова, Виктора Станицына.
качество: SATRip
формат: AVI
Видео: 688x528 (1.30:1), 25 fps, XviD build 50 ~1829 kbps avg, 0.20 bit/pixel
Аудио: 48 kHz, MPEG Layer 3, 2 ch, ~128.00 kbps avg

MediaInfo

Complete name : C:\Users\Home\Desktop\Razdacha\Анатолий Кторов.Первый среди равных.2008.SATRip.aviFormat : AVIFormat/Info : Audio Video InterleaveFile size : 548 MiBDuration : 38mn 58sOverall bit rate : 1 968 KbpsWriting application : VirtualDubMod 1.5.10.3 | www.virtualdub-fr.org || (build 2550/release)Writing library : VirtualDubMod build 2550/release
VideoID : 0Format : MPEG-4 VisualFormat profile : Advanced Simple@L5Format settings, BVOP : 2Format settings, QPel : NoFormat settings, GMC : No warppointsFormat settings, Matrix : Default (MPEG)Codec ID : XVIDCodec ID/Hint : XviDDuration : 38mn 58sBit rate : 1 830 KbpsWidth : 688 pixelsHeight : 528 pixelsDisplay aspect ratio : 4:3Frame rate : 25.000 fpsColor space : YUVChroma subsampling : 4:2:0Bit depth : 8 bitsScan type : ProgressiveCompression mode : LossyBits/(Pixel*Frame) : 0.201Stream size : 510 MiB (93%)Writing library : XviD 1.2.1 (UTC 2008-12-04)
AudioID : 1Format : MPEG AudioFormat version : Version 1Format profile : Layer 3Codec ID : 55Codec ID/Hint : MP3Duration : 38mn 58sBit rate mode : ConstantBit rate : 128 KbpsChannel count : 2 channelsSampling rate : 48.0 KHzCompression mode : LossyStream size : 35.7 MiB (7%)Alignment : Aligned on interleavesInterleave, duration : 40 ms (1.00 video frame)Interleave, preload duration : 504 msWriting library : LAME3.99rEncoding settings : -m s -V 4 -q 2 -lowpass 17 -b 128

Скриншоты

[teatrix.ru].t11126.torrent 
Торрент: Зарегистрирован [ 2015-12-07 05:05 ] · E4842A4FB248E703402DD7A74A5A4F7309418B8F

Скачать .torrent

Скачать

11 KB

Статус: проверено
Скачан: 0 раз
Размер: 548 MB
terms.php



Быстрый ответ

Имя:

      
Для отправки сообщений необходимо включить JavaScript
Показать сообщения:    

Текущее время: 11-Дек 05:21

Часовой пояс: UTC + 3


Вы можете начинать темы
Вы можете отвечать на сообщения
Вы не можете редактировать свои сообщения
Вы не можете удалять свои сообщения
Вы не можете голосовать в опросах
Вы не можете прикреплять файлы к сообщениям
Вы можете скачивать файлы