Роман Полански: фильм – воспоминание / Роман Полански: Киномемуары / Roman Polanski: A Film Memoir (Лоран Бузеро / Laurent Bouzereau) [2011, документальный, биографический, DVB] DVO (Селена Интернешнл)


Статистика раздачи [Обновить пиров]
Размер:  1.46 GB   |    Зарегистрирован:  1 год 1 месяц   |    Скачан:  1 раз

Полного источника не было: 3 месяца 2 дня

 
   
 
 
 

[Цитировать]

Роман Полански: фильм – воспоминание
Roman Polanski: A Film Memoir- Дата/Год выпуска: 2011
Страна: Великобритания, Италия, Германия
Жанр: документальный, биографический
Продолжительность: 01:27:34
Перевод: Профессиональный (двухголосый закадровый)
Доп. инфо о переводе: Кинокомпания "Селена Интернешнл" по заказу телеканала 24ДОК
Русские субтитры: естьФормат субтитров: hardsub (неотключаемые)
Доп. информация о субтитрах: форсированные
Режиссер: Лоран Бузеро / Laurent Bouzereau
Телеканал: 24ДОК
Описание: Фильм об удивительной жизни Романа Полански: его детских годах в Краковском гетто, первых фильмах, снятых в Польше, отъезде в Париж, карьере в Европе и США, о премии "Оскар", о трагическом убийстве в Лос-Анджелесе его жены Шарон Тэйт, спорах вокруг его ареста в 1977 году, его сегодняшней работе и жизни во Франции с супругой Эммануэль Сенье… (анонс канала "24ДОК")
Доп. информация: DVB-S. В отличие от имеющегося на трекере SATRip DVO (Ульпаней Эльром) в данной раздаче другой перевод DVO (Селена Интернешнл).
Номинация на лучший документальный фильм British Independent Film Awards 2012. Участник Cannes Film Festival 2012.

качество: DVB
формат: MKV
Видео: MPEG Video 2, 720x576@768x576 (4:3), 25 fps, ~2151 kbps avg, 0.207 bit/pixel
Аудио: MPEG Audio 2, 2 ch, 48 kHz, ~192.00 kbps avg

MediaInfo

ОбщееУникальный идентификатор : 191980433564372480626728081723908185916 (0x906E1629B375767488FE28B47B885F3C)Полное имя : E:\My Torrents 2\[apreder]Roman_Polanski_A_Film_Memoir(2011)DVB.mkvФормат : MatroskaВерсия формата : Version 2Размер файла : 1,46 ГбайтПродолжительность : 1 ч. 27 м.Режим общего битрейта : ПеременныйОбщий поток : 2390 Кбит/секДата кодирования : UTC 2015-01-31 11:13:47Программа кодирования : mkvmerge v7.5.0 ('Glass Culture') 64bit built on Jan 4 2015 16:48:44Библиотека кодирования : libebml v1.3.1 + libmatroska v1.4.2
ВидеоИдентификатор : 1Формат : MPEG VideoВерсия формата : Version 2Профиль формата : Main@MainПараметр BVOP формата : ДаПараметр матрицы формата : ВыборочнаяПараметр GOP формата : M=3, N=36Format_Settings_PictureStructure : FrameИдентификатор кодека : V_MPEG2Идентификатор кодека/Информация : MPEG 1 or 2 VideoПродолжительность : 1 ч. 27 м.Вид битрейта : ПеременныйБитрейт : 2151 Кбит/секШирина : 720 пикселейВысота : 576 пикселейСоотношение сторон : 4:3Режим частоты кадров : ПостоянныйЧастота кадров : 25,000 кадров/секСтандарт вещания : PALЦветовое пространство : YUVСубдискретизация насыщенности : 4:2:0Битовая глубина : 8 битТип развёртки : ЧересстрочнаяПорядок развёртки : Верхнее поле первоеМетод сжатия : С потерямиБит/(Пиксели*Кадры) : 0.207Временной код первого кадра : 00:00:00:00Оригинал временного кода : Group of pictures headerРазмер потока : 1,32 Гбайт (90%)Default : ДаForced : НетGop_OpenClosed_FirstFrame : Closed
АудиоИдентификатор : 2Формат : MPEG AudioВерсия формата : Version 1Профиль формата : Layer 2Идентификатор кодека : A_MPEG/L2Идентификатор кодека/Подсказка : MP2Продолжительность : 1 ч. 27 м.Вид битрейта : ПостоянныйБитрейт : 192 Кбит/секКаналы : 2 каналаЧастота : 48,0 КГцМетод сжатия : С потерямиРазмер потока : 120 Мбайт (8%)Язык : RussianDefault : ДаForced : Нет

Скриншоты


Резервные скриншоты


-[2'087]
[teatrix.ru].t11127.torrent 
Торрент: Зарегистрирован [ 2015-12-07 05:05 ] · 216C3275883A68B0419926C12FF1E710A787CD2F

Скачать .torrent

Скачать

15 KB

Статус: проверено
Скачан: 1 раз
Размер: 1.46 GB
terms.php



Быстрый ответ

Имя:

      
Для отправки сообщений необходимо включить JavaScript
Показать сообщения:    

Текущее время: 19-Янв 22:17

Часовой пояс: UTC + 3


Вы можете начинать темы
Вы можете отвечать на сообщения
Вы не можете редактировать свои сообщения
Вы не можете удалять свои сообщения
Вы не можете голосовать в опросах
Вы не можете прикреплять файлы к сообщениям
Вы можете скачивать файлы