Серебряный шар. Авторская программа Виталия Вульфа (Елена Гудиева) [1995-2002, Биография, искусство, личности и кумиры, SATRip]


Статистика раздачи [Обновить пиров]
Размер:  33.77 GB   |    Зарегистрирован:  11 месяцев   |    Скачан:  0 раз

Полного источника не было: Никогда

 
   
 
 
 

[Цитировать]

Серебряный шар. Авторская программа Виталия Вульфа
Год выпуска: 1995-2002
Страна: Россия
Жанр: Биография, искусство, личности и кумиры
Продолжительность: 64 х~00:38:00
Перевод: Не требуется
Русские субтитры: нет

Режиссер: Елена Гудиева
Описание: Художественно-просветительская программа Виталия Вульфа. Задумывая этот цикл, авторы проекта руководствовались такими идеями: "Искусство наполняет душевное пространство только тогда, когда в нем есть отблеск идеального, когда открывается личность. То, что сегодня происходит в нашей жизни, повысило цену человеческой индивидуальности, уникальности, авторитета художника, обнажило потребность в иллюзиях и моделях для подражания".
Герои передачи Виталия Вульфа — те, чья судьба стала определяющей, поворотной и знаковой. Знать подробности жизни этих людей — хороший тон. Это — изумительный по красоте, зажигательный, интригующий видео-рассказ будь-то о Фрэнке Синатре или Ольге Чеховой, Вивьен Ли, Елене Кузьминой или Элизабет Тейлор. И вновь с гордостью ощущаешь себя соотечественником наших великих мастеров слова — Пушкина, Толстого, Тютчева... За всем этим с 1994 года в программе "Серебряный шар" стоит Виталий Яковлевич Вульф — обаятельный человек, виртуозный рассказчик, артист, философ, энциклопедист, знаток человеческой природы, театра, жизни, наконец. А наш "Серебряный шар" катится вперед и каждый месяц зрителя ждет новый тридцатиминутный рассказ о мировых легендах театра, кино, сцены.

Доп. информация:
Рип: maslovagal
Автор релиза фильма Уинстон Черчилль - mikloeff
( Спасибо!)
За постер благодарность Verba96!
19.01.2015 добавлены фильмы: 63. Екатерина Фурцева и 64. Любовь Орлова
качество: SATRip
формат: AVI
Видео: 704x528 (1.33:1)*25 fps*DivX Codec 5.05*1717 kbps avg*0.18 bit/pixel
Аудио: 48 kHz*MPEG Layer 3*2 ch*192.00 kbps avg
В раздаче представлены 64 серии Цикла телевизионных передач Серебряный шар, в том числе:

Список выпусков/серий

01. Борис Эйфман (2000)
02. Судьба "Бесприданницы"(1996)
03. Иосип Броз Тито (2002)
04. Чехов и Лика (1998)
05. Два тенора Лемешев и Козловский (2000)
06. Фаина Раневская (2000)
07. Мария Бабанова (2000)
08. Марина Ладынина (1998)
09. Мерилин Монро (1998)
10. Нина Дорошина (2002)
11. Наталья Николаевна Пушкина (2002)
12. Ольга Книппер-Чехова (1999)
13. Старая русская Ницца (1998)
14. Серафима Бирман (1995)
15. "Современник" на Бродвее (1996)
16. Вячеслав Невинный (2002)
17. "Вишневый сад" на Бродвее (1998)
18. Конец Муссолини (2002)
19. Ева Браун и ее фюрер (2002)
20. Джордж Баланчин (1999)
21. Ингрид Бергман (1998)
22. Лайза Минелли (1997)
23. Вивьен Ли (1997)
24. Анатолий Папанов
25. Фрэнк Синатра
26. Юрий Григорович
27. Монолог о Гафте
28. Павел Шпрингфельд
29. Валентина Серова
30. Владимир Маяковский
31. Рина Зеленая
32.Уинстон Черчилль (2000)
33. Елена Кузьмина (1997)
34. Алла Тарасова (1998)
35. Людмила Савельева (2002)
36. Элла Леждей (2001)
37. Федор Раскольников (2002)
38. Юрий Богатырев (2002)
39. Лидия Сухаревская (1995)
40. Михаил Геловани (Сталин в кино) (2000)
41. Марк Захаров (2000)
42. Наталия Бессмертнова (2001)
43. Сергей Дягилев (2001)
44. Ванесса Редгрейв (2000)
45. Возвращение Марины Цветаевой (1999)
46. Нина Дробышева (1998)
47. Ольга Чехова (1997)
48. Людмила Целиковская (2001)
49. Павел Массальский (1997)
50. Жерар Филипп (2002)
51. Пол Ньюмен (1998)
52. Ив Монтан (2001)
53. Жан Габен (1999)
54. Алла Ларионова (1999)
55. Крючкова Светлана (2002)
56. "Алла Демидова (1997)
57. Лидия Драновская (1998)
58. Марк Прудкин (1998)
59. Михаил Жаров (1999)
60. Михаил Лавровский (2002)
61. Евгений Урбанский
62. Одри Хепберн
63. Екатерина Фурцева
64. Любовь Орлова

MediaInfo

Формат : AVI
Формат/Информация : Audio Video Interleave
Размер файла : 532 Мбайт
Продолжительность : 38 м.
Общий поток : 1919 Кбит/сек
Программа кодирования : VirtualDubMod 1.5.10.2 (build 2540/release)
Библиотека кодирования : VirtualDubMod build 2540/release
Видео
Идентификатор : 0
Формат : MPEG-4 Visual
Параметр BVOP формата : Нет
Параметр QPel формата : Нет
Параметр GMC формата : Без точки перехода
Параметр матрицы формата : Default (H.263)
Идентификатор кодека : DX50
Идентификатор кодека/Подсказка : DivX 5
Продолжительность : 38 м.
Битрейт : 1717 Кбит/сек
Ширина : 704 пикселя
Высота : 528 пикселей
Соотношение сторон : 4:3
Частота кадров : 25,000 кадров/сек
Цветовое пространство : YUV
Субдискретизация насыщенности : 4:2:0
Битовая глубина : 8 бит
Тип развёртки : Прогрессивная
Метод сжатия : С потерями
Бит/(Пиксели*Кадры) : 0.185
Размер потока : 476 Мбайт (89%)
Библиотека кодирования : DivX 5.0.5 (UTC 2003-04-24)
Аудио
Идентификатор : 1
Формат : MPEG Audio
Версия формата : Version 1
Профиль формата : Layer 3
Режим : Joint stereo
Идентификатор кодека : 55
Идентификатор кодека/Подсказка : MP3
Продолжительность : 38 м.
Вид битрейта : Постоянный
Битрейт : 192 Кбит/сек
Каналы : 2 канала
Частота : 48,0 КГц
Метод сжатия : С потерями
Задержка видео : 20 мс.
Размер потока : 53,3 Мбайт (10%)
Выравнивание : Разделение по промежуткам
Продолжительность промежутка : 40 мс. (1,00 видеокадр)
Время предзагрузки промежутка : 500 мс.

Скриншоты

Серебряный шар. Пол Ньюмен

Серебряный шар. Жерар Филипп

Серебряный шар.

Серебряный шар. Фаина Раневская

Серебряный шар. Два тенора Лемешев и Козловский

Серебряный шар. Борис Эйфман
[teatrix.ru].t11128.torrent 
Торрент: Зарегистрирован [ 2015-12-07 05:05 ] · B609724A79171ADF793C5005285FE93F10BB6485

Скачать .torrent

Скачать

174 KB

Статус: проверено
Скачан: 0 раз
Размер: 33.77 GB
terms.php



Быстрый ответ

Имя:

      
Для отправки сообщений необходимо включить JavaScript
Показать сообщения:    

Текущее время: 06-Дек 22:55

Часовой пояс: UTC + 3


Вы можете начинать темы
Вы можете отвечать на сообщения
Вы не можете редактировать свои сообщения
Вы не можете удалять свои сообщения
Вы не можете голосовать в опросах
Вы не можете прикреплять файлы к сообщениям
Вы можете скачивать файлы