Монти Пайтон: Почти что правда - версия юристов / Monty Python: Almost the Truth - Lawyers Cut (6 серий) (Билл Джонс / Bill Jones, Алан Паркер / Alan Parker, Бенджамин Тимлетт / Ben Timlett) [2009, комедия, DVDRip]


Статистика раздачи [Обновить пиров]
Размер:  3.22 GB   |    Зарегистрирован:  1 год   |    Скачан:  0 раз

Полного источника не было: Никогда

 
   
 
 
 

[Цитировать]

Монти Пайтон: Почти что правда - версия юристов / Monty Python: Almost the Truth - Lawyers Cut
Дата/Год выпуска: 2009
Страна: Великобритания
Жанр: комедия
Продолжительность: 6 серий по ~55 минут
Перевод: Субтитры
Русские субтитры: есть
Формат субтитров: softsub (SRT)
Оригинальная аудиодорожка: английский
Режиссер: Билл Джонс / Bill Jones, Алан Паркер / Alan Parker, Бенджамин Тимлетт / Ben Timlett
Описание: "Монти Пайтон: Почти что правда" документальный телесериал 2009 года в шести частях, который рассказывает о членах легендарной британской комик-группы "Монти Пайтон". Сериал освещает их детство, университетскую жизнь и работу до "Пайтона", во время и после. Впервые за два десятилетия все пять ныне живущих участников "Монти Пайтона" объединились для такого проекта, где также показаны архивные видеозаписи Грэма Чепмена, интервью с коллегами, включая Кэрол Кливленд и партнера Чепмена Дэвида Шерлока, а также комментарии современных комиков. Структура фильма схожа с документальным сериалом "Антологии Битлз".
качество: DVDRip
формат: AVI
Видео: XviD, 640x352 (16:9), 25 fps, ~1350 kbps
Аудио: MP3, ~120 kbps, 48,0 kHz, 2ch

Список выпусков/серий

s01e01 The Not-So-Interesting Beginnings. Не такое уж захватывающее начало
s01e02 The Much Funnier Second Episode. Гораздо более смешной второй эпизод
s01e03 And Now, the Sordid Personal Bits. А сейчас омерзительные персональные части
s01e04 The Ultimate Holy Grail Episode. Главнейший эпизод про Священный Грааль
s01e05 Lust for Glory! Жажда славы!
s01e06 Finally! The Last Episode Ever! (For Now...). Наконец-то! Самый последний эпизод! (на данный момент)

отчёт MediaInfo

Общее
Полное имя : D:\Torrents\2009. Monty Python Almost the Truth - Lawyers Cut\Monty.Python.Almost.the.Truth.Lawyers.Cut.s01e01 The Not-So-Interesting Beginnings.avi
Формат : AVI
Формат/Информация : Audio Video Interleave
Размер файла : 550 Мбайт
Продолжительность : 51 м.
Режим общего битрейта : Переменный
Общий поток : 1495 Кбит/сек
Программа кодирования : VirtualDubMod 1.5.10.2 (build 2540/release)
Библиотека кодирования : VirtualDubMod build 2540/release
Видео
Идентификатор : 0
Формат : MPEG-4 Visual
Профиль формата : Advanced Simple@L5
Параметр BVOP формата : 2
Параметр QPel формата : Нет
Параметр GMC формата : Без точки перехода
Параметр матрицы формата : Default (H.263)
Идентификатор кодека : XVID
Идентификатор кодека/Подсказка : XviD
Продолжительность : 51 м.
Битрейт : 1357 Кбит/сек
Ширина : 640 пикселей
Высота : 352 пикселя
Соотношение сторон : 16:9
Частота кадров : 25,000 кадров/сек
Цветовое пространство : YUV
Субдискретизация насыщенности : 4:2:0
Битовая глубина : 8 бит
Тип развёртки : Прогрессивная
Метод сжатия : С потерями
Бит/(Пиксели*Кадры) : 0.241
Размер потока : 499 Мбайт (91%)
Библиотека кодирования : XviD 1.2.1 (UTC 2008-12-04)
Аудио
Идентификатор : 1
Формат : MPEG Audio
Версия формата : Version 1
Профиль формата : Layer 3
Режим : Joint stereo
Расширение режима : MS Stereo
Идентификатор кодека : 55
Идентификатор кодека/Подсказка : MP3
Продолжительность : 51 м.
Вид битрейта : Переменный
Битрейт : 125 Кбит/сек
Каналы : 2 канала
Частота : 48,0 КГц
Метод сжатия : С потерями
Размер потока : 45,9 Мбайт (8%)
Выравнивание : Соединение по промежуткам
Продолжительность промежутка : 24 мс. (0,60 видеокадр)
Время предзагрузки промежутка : 162 мс.
Библиотека кодирования : LAME3.90
Настройки программы : -m j -V 0 -q 0 -lowpass 19.5 --vbr-new

Скриншоты







[teatrix.ru].t11129.torrent 
Торрент: Зарегистрирован [ 2015-12-07 05:05 ] · 7CE2E0108B4F019DD7283593C954B21F054BE6FB

Скачать .torrent

Скачать

19 KB

Статус: проверено
Скачан: 0 раз
Размер: 3.22 GB
terms.php



Быстрый ответ

Имя:

      
Для отправки сообщений необходимо включить JavaScript
Показать сообщения:    

Текущее время: 10-Дек 19:35

Часовой пояс: UTC + 3


Вы можете начинать темы
Вы можете отвечать на сообщения
Вы не можете редактировать свои сообщения
Вы не можете удалять свои сообщения
Вы не можете голосовать в опросах
Вы не можете прикреплять файлы к сообщениям
Вы можете скачивать файлы