Жизнь со Сталиным на обложке (Александр Андреев, Сергей Федотов) [2014, документальный, биография, SATRip]


Статистика раздачи [Обновить пиров]
Размер:  259 MB   |    Зарегистрирован:  1 год   |    Скачан:  0 раз

Полного источника не было: Никогда

 
   
 
 
 

[Цитировать]

Жизнь со Сталиным на обложке- -Год выпуска: 2014
Страна: Россия
Жанр: документальный, биография
Продолжительность: 00:20:08
Перевод: Не требуется
Русские субтитры: нет-Режиссер: Александр Андреев, Сергей Федотов-Описание:
Имя Иосифа Сталина намертво привязано к величайшему периоду русской истории – как логическому и победоносному продолжению предыдущих величайших периодов и крайней точке отсчёта будущей истории, которую мы должны делать сами.-Качество: SATRip
Формат: AVI
Видео кодек: FMP4
Аудио кодек: MPEG Layer 3
Видео: 720x526 (1.37:1), 25 fps, ~1657 kbps avg, 0.17 bit/pixel
Аудио: 48 kHz, MPEG Layer 3, 2 ch, ~128.00 kbps avg
-

MediaInfo

General
Complete name : F:\000\Жизнь со Сталиным на обложке\Жизнь со Сталиным на обложке.avi
Format : AVI
Format/Info : Audio Video Interleave
File size : 259 MiB
Duration : 20mn 8s
Overall bit rate : 1 799 Kbps
Writing application : Lavf52.84.0
Video
ID : 0
Format : MPEG-4 Visual
Format profile : Simple@L1
Format settings, BVOP : No
Format settings, QPel : No
Format settings, GMC : No warppoints
Format settings, Matrix : Default (H.263)
Codec ID : FMP4
Duration : 20mn 8s
Bit rate : 1 658 Kbps
Width : 720 pixels
Height : 526 pixels
Display aspect ratio : 4:3
Frame rate : 25.000 fps
Color space : YUV
Chroma subsampling : 4:2:0
Bit depth : 8 bits
Scan type : Progressive
Compression mode : Lossy
Bits/(Pixel*Frame) : 0.175
Stream size : 239 MiB (92%)
Writing library : Lavc52.97.0
Audio
ID : 1
Format : MPEG Audio
Format version : Version 1
Format profile : Layer 3
Mode : Joint stereo
Mode extension : MS Stereo
Codec ID : 55
Codec ID/Hint : MP3
Duration : 20mn 8s
Bit rate mode : Constant
Bit rate : 128 Kbps
Channel(s) : 2 channels
Sampling rate : 48.0 KHz
Compression mode : Lossy
Stream size : 18.4 MiB (7%)
Alignment : Aligned on interleaves
Interleave, duration : 24 ms (0.60 video frame)
Writing library : LAME3.98.4

Скриншоты фильма

-Раздаю до первых 5-ти скачавших, на раздачи не возвращаюсь...-
[teatrix.ru].t11130.torrent 
Торрент: Зарегистрирован [ 2015-12-07 05:05 ] · 377E3E8A3B2F34B2C840290F63846DFF250AFB71

Скачать .torrent

Скачать

11 KB

Статус: проверено
Скачан: 0 раз
Размер: 259 MB
terms.php



Быстрый ответ

Имя:

      
Для отправки сообщений необходимо включить JavaScript
Показать сообщения:    

Текущее время: 10-Дек 21:34

Часовой пояс: UTC + 3


Вы можете начинать темы
Вы можете отвечать на сообщения
Вы не можете редактировать свои сообщения
Вы не можете удалять свои сообщения
Вы не можете голосовать в опросах
Вы не можете прикреплять файлы к сообщениям
Вы можете скачивать файлы