Тайная жизнь Пиаф / Эдит Пиаф: Интимное / Piaf intime / Edith Piaf: Intime (Валери Эспозито / Valerie Exposito) [2013, документальный, биография, DVB] DVO (ИГМАР)


Статистика раздачи [Обновить пиров]
Размер:  1.56 GB   |    Зарегистрирован:  1 год   |    Скачан:  0 раз

Полного источника не было: Никогда

 
   
 
 
 

[Цитировать]

Тайная жизнь Пиаф
Piaf intime- Дата/Год выпуска: 2013
Страна: Франция
Жанр: документальный, биография
Продолжительность: 01:09:58
Перевод: Профессиональный (двухголосый закадровый)
Доп. инфо о переводе: Компания ИГМАР
Русские субтитры: нет
Режиссер: Валери Эспозито / Valérie Exposito
Телеканал: Время: далекое и близкоеОписание: Вся Франция следила за её жизнью. Поклонники, как зрители "мыльной оперы" сопереживали её неудачам и проблемам со здоровьем, следили за её любовными интригами и триумфальными победами. Её песни слушал весь мир. Она только что отпраздновала свой 48-й день рождения. Но в пятницу, 11-го октября 1963, всё остановилось... Франция была погружена в траур и оплакивала своего кумира. Сорок тысяч человек приехали, чтобы проводить в последний путь великую Пиаф.
С помощью уникальных документов, неизвестных ранее фотографий и эксклюзивных кинохроник мы на мгновение вёрнём к жизни Эдит Пиаф, где она предстанет в совершенно новом свете. Клише бульварной прессы останутся далеко позади, зрители увидят чувственную женщину, уникальную и многогранную личность. (анонс канала "Время")
Доп. информация: DVB-S

качество: DVB
формат: MKV
Видео: MPEG Video 2, 720x576@768x576 (4:3), 25 fps, ~2936 kbps avg, 0.283 bit/pixel
Аудио: MPEG Audio 2, 2 ch, 48 kHz, ~192.00 kbps avg

MediaInfo

ОбщееУникальный идентификатор : 234049369162736027288589138285733704148 (0xB01444D39601B16DB46AFA0B001D71D4)Полное имя : E:\My Torrents 2\[apreder]Piaf_intime(2013)DVB.mkvФормат : MatroskaВерсия формата : Version 2Размер файла : 1,56 ГбайтПродолжительность : 1 ч. 9 м.Режим общего битрейта : ПеременныйОбщий поток : 3192 Кбит/секДата кодирования : UTC 2015-01-03 08:44:52Программа кодирования : mkvmerge v7.4.0 ('Circles') 64bit built on Dec 12 2014 12:19:56Библиотека кодирования : libebml v1.3.0 + libmatroska v1.4.1
ВидеоИдентификатор : 1Формат : MPEG VideoВерсия формата : Version 2Профиль формата : Main@MainПараметр BVOP формата : ДаПараметр матрицы формата : ВыборочнаяПараметр GOP формата : M=3, N=12Format_Settings_PictureStructure : FrameИдентификатор кодека : V_MPEG2Идентификатор кодека/Информация : MPEG 1 or 2 VideoПродолжительность : 1 ч. 9 м.Вид битрейта : ПеременныйБитрейт : 2936 Кбит/секШирина : 720 пикселейВысота : 576 пикселейСоотношение сторон : 4:3Режим частоты кадров : ПостоянныйЧастота кадров : 25,000 кадров/секСтандарт вещания : PALЦветовое пространство : YUVСубдискретизация насыщенности : 4:2:0Битовая глубина : 8 битТип развёртки : ЧересстрочнаяПорядок развёртки : Верхнее поле первоеМетод сжатия : С потерямиБит/(Пиксели*Кадры) : 0.283Временной код первого кадра : 00:00:00:00Оригинал временного кода : Group of pictures headerРазмер потока : 1,44 Гбайт (92%)Default : ДаForced : НетGop_OpenClosed_FirstFrame : Closed
АудиоИдентификатор : 2Формат : MPEG AudioВерсия формата : Version 1Профиль формата : Layer 2Идентификатор кодека : A_MPEG/L2Идентификатор кодека/Подсказка : MP2Продолжительность : 1 ч. 9 м.Вид битрейта : ПостоянныйБитрейт : 192 Кбит/секКаналы : 2 каналаЧастота : 48,0 КГцМетод сжатия : С потерямиРазмер потока : 96,1 Мбайт (6%)Язык : RussianDefault : ДаForced : Нет

Скриншоты


Резервные скриншоты


-[2'024]
[teatrix.ru].t11131.torrent 
Торрент: Зарегистрирован [ 2015-12-07 05:05 ] · F49791170C6C8926DEEAADC7A57AEC50BDE62163

Скачать .torrent

Скачать

16 KB

Статус: проверено
Скачан: 0 раз
Размер: 1.56 GB
terms.php



Быстрый ответ

Имя:

      
Для отправки сообщений необходимо включить JavaScript
Показать сообщения:    

Текущее время: 10-Дек 00:21

Часовой пояс: UTC + 3


Вы можете начинать темы
Вы можете отвечать на сообщения
Вы не можете редактировать свои сообщения
Вы не можете удалять свои сообщения
Вы не можете голосовать в опросах
Вы не можете прикреплять файлы к сообщениям
Вы можете скачивать файлы