Борис Ельцин. Становление лидера / Boris Eltsine, l\'enfance d\'un chef (Кира Чиликов / Kira Tchilikov) [2001 г.; документальный, биография; DVB] VO (Первый канал)


Статистика раздачи [Обновить пиров]
Размер:  1.23 GB   |    Зарегистрирован:  1 год   |    Скачан:  0 раз

Полного источника не было: Никогда

 
   
 
 
 

[Цитировать]

Борис Ельцин. Становление лидера
Boris Eltsine, l'enfance d'un chef
Год выпуска: 2001
Страна: Франция
Жанр: документальный, биография
Продолжительность: 00:58:04
Перевод: студийный (одноголосый закадровый) по заказу ЗАО «Первый канал. Всемирная сеть»
Режиссёр: Кира Чиликов / Kira Tchilikov
Телеканал: Время
Описание: Борис Ельцин – это новый тип политического лидера. Ельцин, будучи основоположником российской демократии, далеко не идеален в своих решениях. У него были ошибки, причём весьма серьёзные. Как любую историческую личность такого масштаба, Ельцина нельзя рассматривать лишь с одной стороны, поскольку он многогранен, как и любой другой политик, а особенно в масштабе такой неординарной страны, как Россия.
Но человек, какие бы посты он не занимал, прежде всего, остаётся человеком. Огромную роль в политической жизни Ельцина сыграл его необыкновенный характер.
Качество: DVB
Формат: MPG
Видео кодек: MPEG2
Видео: MPEG2 Video 704x576 (4:3) 25fps 2772kbps
Аудио: MPEG Audio 48000Hz stereo 192kbps

MI

GeneralComplete name : Boris Eltsine, l'enfance d'un chef (2001) [Время].mpgFormat : MPEG-PSFile size : 1.23 GiBDuration : 58mn 4sOverall bit rate mode : VariableOverall bit rate : 3 025 KbpsWriting library : (dvd5: Jun 16 2014)
VideoID : 224 (0xE0)Format : MPEG VideoFormat version : Version 2Format profile : Main@MainFormat settings, BVOP : YesFormat settings, Matrix : CustomFormat settings, GOP : VariableDuration : 58mn 4sBit rate mode : VariableBit rate : 2 772 KbpsMaximum bit rate : 15.0 MbpsWidth : 704 pixelsHeight : 576 pixelsDisplay aspect ratio : 4:3Frame rate : 25.000 fpsStandard : PALColor space : YUVChroma subsampling : 4:2:0Bit depth : 8 bitsScan type : InterlacedScan order : Top Field FirstCompression mode : LossyBits/(Pixel*Frame) : 0.273Time code of first frame : 00:00:00:00Time code source : Group of pictures headerStream size : 1.12 GiB (92%)Source encoded stream size : (dvd5: Jun 16 2014)Writing library : (dvd5: Jun 16 2014)
AudioID : 192 (0xC0)Format : MPEG AudioFormat version : Version 1Format profile : Layer 2Duration : 58mn 4sBit rate mode : ConstantBit rate : 192 KbpsChannel(s) : 2 channelsSampling rate : 48.0 KHzCompression mode : LossyDelay relative to video : -80msStream size : 79.8 MiB (6%)
[teatrix.ru].t11133.torrent 
Торрент: Зарегистрирован [ 2015-12-07 05:05 ] · 707E2CF4F8BF08895950C65E53E345D8D1C3AEFC

Скачать .torrent

Скачать

13 KB

Статус: проверено
Скачан: 0 раз
Размер: 1.23 GB
terms.php



Быстрый ответ

Имя:

      
Для отправки сообщений необходимо включить JavaScript
Показать сообщения:    

Текущее время: 08-Дек 21:12

Часовой пояс: UTC + 3


Вы можете начинать темы
Вы можете отвечать на сообщения
Вы не можете редактировать свои сообщения
Вы не можете удалять свои сообщения
Вы не можете голосовать в опросах
Вы не можете прикреплять файлы к сообщениям
Вы можете скачивать файлы