Нина Дорошина. Пожертвовать любовью (Марина Исаева) [2014, Документальный, биография, искусство, SATRip]


Статистика раздачи [Обновить пиров]
Размер:  559 MB   |    Зарегистрирован:  11 месяцев   |    Скачан:  0 раз

Полного источника не было: Никогда

 
   
 
 
 

[Цитировать]

Нина Дорошина. Пожертвовать любовью
Дата/Год выпуска: 2014
Страна: Россия, ООО "Форте-Медиа"
Жанр: Документальный, биография, искусство
Продолжительность: 00:39:18
Перевод: Не требуется
Русские субтитры: нет
Режиссер: Марина Исаева
Описание: На втором курсе Нина Дорошина на съёмках фильма "Первый эшелон", который и определил всю её дальнейшую жизнь, познакомилась с Олегом Ефремовым, в то время бредившим созданием нового театра. "Современник" стал родным домом для актрисы на всю жизнь, а Ефремов – единственным мужчиной, которого она любила.
качество: SATRip
формат: AVI
Видео: 704x512 (1.38:1), 25 fps, XviD build 50 ~1849 kbps avg, 0.20 bit/pixel
Аудио: 48 kHz, MPEG Layer 3, 2 ch, ~128.00 kbps avg

MediaInfo

Complete name : C:\Users\Home\Desktop\Razdacha\Нина Дорошина.Пожертвовать любовью.2014.SATRip.aviFormat : AVIFormat/Info : Audio Video InterleaveFile size : 559 MiBDuration : 39mn 18sOverall bit rate : 1 988 KbpsWriting application : VirtualDubMod 1.5.10.3 | www.virtualdub-fr.org || (build 2550/release)Writing library : VirtualDubMod build 2550/release
VideoID : 0Format : MPEG-4 VisualFormat profile : Advanced Simple@L5Format settings, BVOP : 2Format settings, QPel : NoFormat settings, GMC : No warppointsFormat settings, Matrix : Default (MPEG)Codec ID : XVIDCodec ID/Hint : XviDDuration : 39mn 18sBit rate : 1 850 KbpsWidth : 704 pixelsHeight : 512 pixelsDisplay aspect ratio : 1.375Frame rate : 25.000 fpsColor space : YUVChroma subsampling : 4:2:0Bit depth : 8 bitsScan type : ProgressiveCompression mode : LossyBits/(Pixel*Frame) : 0.205Stream size : 520 MiB (93%)Writing library : XviD 1.2.1 (UTC 2008-12-04)
AudioID : 1Format : MPEG AudioFormat version : Version 1Format profile : Layer 3Codec ID : 55Codec ID/Hint : MP3Duration : 39mn 18sBit rate mode : ConstantBit rate : 128 KbpsChannel count : 2 channelsSampling rate : 48.0 KHzCompression mode : LossyStream size : 36.0 MiB (6%)Alignment : Aligned on interleavesInterleave, duration : 40 ms (1.00 video frame)Interleave, preload duration : 504 msWriting library : LAME3.99rEncoding settings : -m s -V 4 -q 2 -lowpass 17 -b 128

Скриншоты

[teatrix.ru].t11134.torrent 
Торрент: Зарегистрирован [ 2015-12-07 05:05 ] · 2357E4F23A61653AA9343B151D5092399F932FB3

Скачать .torrent

Скачать

11 KB

Статус: проверено
Скачан: 0 раз
Размер: 559 MB
terms.php



Быстрый ответ

Имя:

      
Для отправки сообщений необходимо включить JavaScript
Показать сообщения:    

Текущее время: 05-Дек 19:39

Часовой пояс: UTC + 3


Вы можете начинать темы
Вы можете отвечать на сообщения
Вы не можете редактировать свои сообщения
Вы не можете удалять свои сообщения
Вы не можете голосовать в опросах
Вы не можете прикреплять файлы к сообщениям
Вы можете скачивать файлы