Следствие по делу поручика Лермонтова (Алексей Панков) [2014, документальный, биография, история, культура, IPTVRip]


Статистика раздачи [Обновить пиров]
Размер:  700 MB   |    Зарегистрирован:  1 год   |    Скачан:  0 раз

Полного источника не было: Никогда

 
   
 
 
 

[Цитировать]

Следствие по делу поручика Лермонтова
Дата/Год выпуска: 2014
Страна: Россия
Жанр: документальный, биография, история, культура
Продолжительность: 00:44:03
Перевод: Не требуется
Русские субтитры: нет
Режиссер: Алексей Панков
Телеканал: ТК "История"
Описание: 15 июля 1841 года около 7 часов вечера у подножия горы Машук состоялась дуэль между отставным майором Николаем Соломоновичем Мартыновым и поручиком Михаилом Юрьевичем Лермонтовым. Последний был убит. В Санкт-Петербурге и в Москве стали тихо и осторожно поговаривать, что это была не дуэль, а самое настоящее убийство. В том, что случилось в окрестностях Пятигорска, всегда будут видеть некую тайну. Но, может быть, она заключена в самой личности Михаила Юрьевича Лермонтова? Его биография полна тайн, загадок, странных сближений и мистических пересечений. И в жизни, и в творчестве он выбирал тот путь, который определяла ему судьба. Виссарион Белинский писал о нём: "Гордая вражда с небом, презрение рока и предчувствие его неизбежности".
Сэмпл: http://multi-up.com/1015271
качество: IPTVRip
формат: AVI
Видео: 720x416 (1.73:1), 25 fps, XviD MPEG-4 ~2019 kbps avg, 0.27 bit/pixel
Аудио: 48 kHz, AC3 Dolby Digital, 2/0 (L,R) ch, ~192 kbps

MediaInfo

GeneralComplete name : E:\Pshichko66\Na zapis'\Документальные фильмы\Sledstvie po delu poruchika Lermontova.aviFormat : AVIFormat/Info : Audio Video InterleaveFile size : 700 MiBDuration : 44mn 3sOverall bit rate : 2 221 KbpsMovie name : Sledstvie po delu poruchika LermontovaDirector : Pshichko66Genre : Action/Adventure/DramaWriting application : VirtualDubMod 1.5.10.3 | www.virtualdub-fr.org || (build 2550/release)Original source form/Name : MovieCopyright : avi
VideoID : 0Format : MPEG-4 VisualFormat profile : Advanced Simple@L5Format settings, BVOP : 2Format settings, QPel : NoFormat settings, GMC : No warppointsFormat settings, Matrix : CustomCodec ID : XVIDCodec ID/Hint : XviDDuration : 44mn 3sBit rate : 2 019 KbpsWidth : 720 pixelsHeight : 416 pixelsDisplay aspect ratio : 1.731Frame rate : 25.000 fpsColor space : YUVChroma subsampling : 4:2:0Bit depth : 8 bitsScan type : ProgressiveCompression mode : LossyBits/(Pixel*Frame) : 0.270Stream size : 636 MiB (91%)Writing library : XviD 73
AudioID : 1Format : AC-3Format/Info : Audio Coding 3Mode extension : CM (complete main)Format settings, Endianness : BigCodec ID : 2000Duration : 44mn 3sBit rate mode : ConstantBit rate : 192 KbpsChannel count : 2 channelsChannel positions : Front: L RSampling rate : 48.0 KHzBit depth : 16 bitsCompression mode : LossyStream size : 60.5 MiB (9%)Alignment : Split accross interleavesInterleave, duration : 40 ms (1.00 video frame)Interleave, preload duration : 500 ms

Скриншоты

[teatrix.ru].t11135.torrent 
Торрент: Зарегистрирован [ 2015-12-07 05:05 ] · E4A7C39E0D0AEB81517134300E527F958ACB4F8B

Скачать .torrent

Скачать

14 KB

Статус: проверено
Скачан: 0 раз
Размер: 700 MB
terms.php



Быстрый ответ

Имя:

      
Для отправки сообщений необходимо включить JavaScript
Показать сообщения:    

Текущее время: 08-Дек 10:52

Часовой пояс: UTC + 3


Вы можете начинать темы
Вы можете отвечать на сообщения
Вы не можете редактировать свои сообщения
Вы не можете удалять свои сообщения
Вы не можете голосовать в опросах
Вы не можете прикреплять файлы к сообщениям
Вы можете скачивать файлы