Неизвестная Мэрилин / Love, Marilyn (Лиз Гарбус / Liz Garbus) [2012, Документальный, биография, DVB]


Статистика раздачи [Обновить пиров]
Размер:  1.11 GB   |    Зарегистрирован:  11 месяцев   |    Скачан:  0 раз

Полного источника не было: Никогда

 
   
 
 
 

[Цитировать]

Неизвестная Мэрилин / Love, Marilyn
Дата/Год выпуска: 2012
Страна: США, Франция
Жанр: Документальный, Биографический
Продолжительность: 01:43:08
Перевод: Профессиональный (многоголосый закадровый)
Доп. инфо о переводе: 1 канал
Оригинальная аудиодорожка: нет
Режиссер: Лиз Гарбус / Liz Garbus
Телеканал: 1 канал
Описание: Документальная лента режиссера Лиз Гарбус раскрывает образ Мэрилин Монро с новой, неизвестной широкой публике стороны. Картина основана на многочисленных дневниках, стихах и письмах, написанных самой Мэрилин и найденных среди вещей последнего мужа звезды Артура Миллера.
Фильм рассказывает о секс-символе Америки - Мэрилин Монро, которая и до сих пор вызывает зависть у многих женщин и будоражит сердца мужчин. Яркая, неординарная личность, она прожила короткую, но насыщенную жизнь. Ее любили и ненавидели, ее боготворили и завидовали. Она утопала в роскоши, она имела многочисленных поклонников и поклонниц. В этой картине, построенной на личных дневниках, письмах и стихах, которые прежде никогда не были достоянием широкой общественности, раскрывается личная жизнь актрисы, а также публичная жизнь кинозвезды. В фильме принимали участие такие современные актрис, как Элизабет Бэнкс, Ума Турман, Эллен Берстин, Гленн Клоуз, Виола Дэвис, Дженнифер Эль, Линдсей Лохан, Лили Тейлор, Мариса Томей, Эван Рейчел Вуд, которые говорят о влиянии Мэрилин Монро на их жизни.
Доп. информация: Производство: Diamond Girl Productions, Sol's Luncheonette, StudioCanal
Сценарий: Трумэн Капоте, Лиз Гарбус, Ральф Гринсон, Элиа Казан и другие
В ролях: Ф. Мюррэй Абрахам, Элизабет Бэнкс, Эдриан Броуди, Эллен Бeрстин, Гленн Клоуз, Хоуп Дэвис, Виола Дэвис, Дженнифер Или, Бен Фостер, Джек Хьюстон
Оператор: Мариза Альберти
Композитор: Филип Шеппард
Сэмпл: http://multi-up.com/1013153
качество: DVB
формат: TS/M2TS
Видео: AVC, аноморф. 720х576, 16:9, 1324 Кбит/сек, 25 fps
Аудио: MPEG Audio, 160 Кбит/сек, 44 КГц, 2 канала

MediaInfo

ОбщееИдентификатор : 16 (0x10)Полное имя : Love, Marilyn.tsФормат : MPEG-TSРазмер файла : 1,11 ГбайтПродолжительность : 1 ч. 41 м.Режим общего битрейта : ПеременныйОбщий поток : 1563 Кбит/сек
ВидеоИдентификатор : 1414 (0x586)Идентификатор меню : 414 (0x19E)Формат : AVCФормат/Информация : Advanced Video CodecПрофиль формата : Main@L3.0Параметр CABAC формата : ДаПараметр ReFrames формата : 3 кадраИдентификатор кодека : 27Продолжительность : 1 ч. 41 м.Битрейт : 1324 Кбит/секШирина : 720 пикселейВысота : 576 пикселейСоотношение сторон : 16:9Частота кадров : 25,000 кадров/секСтандарт вещания : PALЦветовое пространство : YUVСубдискретизация насыщенности : 4:2:0Битовая глубина : 8 битТип развёртки : ЧересстрочнаяПорядок развёртки : Верхнее поле первоеБит/(Пиксели*Кадры) : 0.128Размер потока : 966 Мбайт (85%)Основные цвета : BT.601 PALХарактеристики трансфера : BT.470 System B, BT.470 System GКоэффициенты матрицы : BT.601
АудиоИдентификатор : 2414 (0x96E)Идентификатор меню : 414 (0x19E)Формат : MPEG AudioВерсия формата : Version 1Профиль формата : Layer 2Идентификатор кодека : 4Продолжительность : 1 ч. 41 м.Вид битрейта : ПостоянныйБитрейт : 160 Кбит/секКаналы : 2 каналаЧастота : 48,0 КГцМетод сжатия : С потерямиЗадержка видео : 136 мс.Размер потока : 117 Мбайт (10%)Язык : stdЯзык, дополнительно : Clean effects

Скриншоты

[teatrix.ru].t11136.torrent 
Торрент: Зарегистрирован [ 2015-12-07 05:05 ] · 45BA5020C61B5865EED7FCA5AA39591A06175428

Скачать .torrent

Скачать

12 KB

Статус: проверено
Скачан: 0 раз
Размер: 1.11 GB
terms.php



Быстрый ответ

Имя:

      
Для отправки сообщений необходимо включить JavaScript
Показать сообщения:    

Текущее время: 06-Дек 13:11

Часовой пояс: UTC + 3


Вы можете начинать темы
Вы можете отвечать на сообщения
Вы не можете редактировать свои сообщения
Вы не можете удалять свои сообщения
Вы не можете голосовать в опросах
Вы не можете прикреплять файлы к сообщениям
Вы можете скачивать файлы