Григорий Распутин. Жертвоприношение (Сергей Браверман)[2014, Документальный, биография, HDTVRip]


Статистика раздачи [Обновить пиров]
Размер:  713 MB   |    Зарегистрирован:  11 месяцев   |    Скачан:  0 раз
Сидов:  8  [  0 KB/s  ]   Подробная статистика пиров
 
   
 
 

[Цитировать]

Григорий Распутин. Жертвоприношение
Год выпуска: 2014
Страна:Россия, Первый канал
Жанр: Документальный, биография
Продолжительность: 00:25:31
Перевод: Не требуется
Режиссер: Сергей Браверман
Описание: В истории известно немало убийств, совершенных якобы ради великих целей. Одно из таких – убийство Григория Распутина. "Ради спасения России" в 1916 году группа людей, близких к императорскому двору, совершила жестокую казнь безграмотного мужика из Тобольской губернии. Он сам называл себя Другом царской Семьи, его же за глаза - Сатаной и шпионом. Ему приписывали пагубное влияние на репутацию царя и его семьи, настолько роковое, что оно грозило падением Дома Романовых. Убийцы этого мужика искренне верили, что своим карающим актом они спасают царскую Россию от гибели и позора. Григорий Распутин – человек-загадка, и эту загадку мы будем разгадывать эпизод за эпизодом нашего фильма. Кем он был – "Божьим человеком" или немецким шпионом? Чем так привязал к себе членов императорской фамилии - неужели действительно исцелял неизлечимые недуги и видел будущее? Правда ли, что фамилия у "старца" была говорящей, и он слыл самым распутным человеком Петербурга? И кто же убил Распутина – парочка пресыщенных авантюристов-аристократов или английская разведка?
Качество: HDTVRip
Формат: AVI
Видео кодек: XviD
Аудио кодек: AC3
Видео: 720x400 (1.80:1), 25 fps, XviD build 73 ~1800 kbps avg, 0.25 bit/pixel
Аудио: 48 kHz, AC3 Dolby Digital, 2/0 (L,R) ch, ~192 kbps

MI

ОбщееПолное имя : F:\Grigorij Rasputin. Zhertvoprinoshenie.HDTVRip.MediaClub.aviФормат : AVIФормат/Информация : Audio Video InterleaveРазмер файла : 713 МбайтПродолжительность : 49 м.Общий поток : 2001 Кбит/секПрограмма кодирования : VirtualDubMod 1.5.10.3 | www.virtualdub-fr.org || (build 2550/release)Библиотека кодирования : VirtualDubMod build 2550/release
ВидеоИдентификатор : 0Формат : MPEG-4 VisualПрофиль формата : Advanced Simple@L5Параметр BVOP формата : 1Параметр QPel формата : НетПараметр GMC формата : Без точки переходаПараметр матрицы формата : ВыборочнаяИдентификатор кодека : XVIDИдентификатор кодека/Подсказка : XviDПродолжительность : 49 м.Битрейт : 1799 Кбит/секШирина : 720 пикс.Высота : 400 пикс.Соотношение сторон : 16:9Частота кадров : 25,000 кадр/секЦветовое пространство : YUVПодвыборка цветности : 4:2:0Битовая глубина : 8 битТип развёртки : ПрогрессивнаяМетод сжатия : С потерямиБит/(Пиксели*Кадры) : 0.250Размер потока : 641 Мбайт (90%)Библиотека кодирования : XviD 73
АудиоИдентификатор : 1Формат : AC-3Формат/Информация : Audio Coding 3Расширение режима : CM (complete main)Идентификатор кодека : 2000Продолжительность : 49 м.Вид битрейта : ПостоянныйБитрейт : 192 Кбит/секКаналы : 2 каналаРасположение каналов : Front: L RЧастота : 48,0 КГцБитовая глубина : 16 битМетод сжатия : С потерямиРазмер потока : 68,4 Мбайт (10%)Выравнивание : Разделение по промежуткамПродолжительность промежутка : 40 мс. (1,00 видеокадр)Время предзагрузки промежутка : 500 ms

Скриншоты

[teatrix.ru].t11137.torrent 
Торрент: Зарегистрирован [ 2015-12-07 05:05 ] · 3C0320ABF9707AE07A816F159D610C6CFAB9F0E0

Скачать .torrent

Скачать

14 KB

Статус: проверено
Скачан: 0 раз
Размер: 713 MB
terms.php



Быстрый ответ

Имя:

      
Для отправки сообщений необходимо включить JavaScript
Показать сообщения:    

Текущее время: 04-Дек 23:24

Часовой пояс: UTC + 3


Вы можете начинать темы
Вы можете отвечать на сообщения
Вы не можете редактировать свои сообщения
Вы не можете удалять свои сообщения
Вы не можете голосовать в опросах
Вы не можете прикреплять файлы к сообщениям
Вы можете скачивать файлы