Жизнь замечательных людей. Александра Пахмутова (Людмила Уланова, Марина Разбежкина) [1999, документальный фильм, TVRip]


Статистика раздачи [Обновить пиров]
Размер:  739 MB   |    Зарегистрирован:  1 год   |    Скачан:  0 раз

Полного источника не было: Никогда

 
   
 
 
 

[Цитировать]

Жизнь замечательных людей. Александра Пахмутова
Дата и время первого выхода в эфир: 08.03.1999 16:40
Страна: Россия
Телеканал: Первый канал
Режиссёры: Людмила Уланова, Марина Разбежкина
Жанр: документальный фильм
Продолжительность: 00:37:56
Перевод: Не требуется
Русские субтитры: нет
Описание:
«Она дочь СССР, а не разорённого огорода СНГ» — так сказал об Александре Пахмутовой Махмуд Эсамбаев. И действительно, трудно представить себе советское культурное пространство без песен Александры Пахмутовой обо всём, чем жила тогда страна. Молодежные стройки, полёт в космос, спортивные рекорды, романтика походных костров… Сегодня кажется, что не песни вырастали из жизни, а жизнь из песен. Они были неразрывны — эта маленькая женщина с упрямой походкой и страна.
Мы увидим нестареющую Пахмутову сегодня: дома и на репетиции. Услышим её рассказы о себе и героях её песен. Узнаем, что «новое» общество, возникшее после развала Союза, отторгло и её песни, и её героев. Эта горечь возникает в новых песнях Александры Пахмутовой о нищете, о горе матери, потерявшей сына в неправедной войне… И о любви, которая существует, несмотря на смену правительств, государственного строя. Пахмутова снова вместе с нами. «Да я и не расставалась», — скажет она напоследок.
Сэмпл: https://www.sendspace.com/file/3z8gbb
Качество: TVRip
Формат: MKV
Видео: AVC, 704x576 (4:3), 2 446 Kbps, 25 fps
Аудио: AC-3, 48.0 KHz, 224 Kbps (CBR), 2 ch

MediaInfo

GeneralUnique ID : 235781547192639790517915380923135190610 (0xB161DFCC0B7462779D9B1F1333586652)Complete name : D:\1999 Жизнь замечательных людей. Александра Пахмутова (Первый канал).mkvFormat : MatroskaFormat version : Version 4 / Version 2File size : 739 MiBDuration : 37mn 55sOverall bit rate mode : VariableOverall bit rate : 2 724 KbpsEncoded date : UTC 2014-10-25 12:01:08Writing application : mkvmerge v7.2.0 ('On Every Street') 64bit built on Sep 13 2014 15:52:10Writing library : libebml v1.3.0 + libmatroska v1.4.1DURATION : 00:37:55.680000000NUMBER_OF_FRAMES : 71115NUMBER_OF_BYTES : 63719040_STATISTICS_WRITING_APP : mkvmerge v7.2.0 ('On Every Street') 64bit built on Sep 13 2014 15:52:10_STATISTICS_WRITING_DATE_UTC : 2014-10-25 12:01:08_STATISTICS_TAGS : BPS DURATION NUMBER_OF_FRAMES NUMBER_OF_BYTES
VideoID : 1Format : AVCFormat/Info : Advanced Video CodecFormat profile : Main@L3.1Format settings, CABAC : YesFormat settings, ReFrames : 3 framesCodec ID : V_MPEG4/ISO/AVCDuration : 37mn 55sBit rate mode : VariableBit rate : 2 446 KbpsMaximum bit rate : 6 000 KbpsWidth : 704 pixelsHeight : 576 pixelsDisplay aspect ratio : 4:3Frame rate mode : ConstantFrame rate : 25.000 fpsStandard : PALColor space : YUVChroma subsampling : 4:2:0Bit depth : 8 bitsScan type : InterlacedScan order : Top Field FirstBits/(Pixel*Frame) : 0.241Stream size : 663 MiB (90%)Default : YesForced : No
AudioID : 2Format : AC-3Format/Info : Audio Coding 3Mode extension : CM (complete main)Format settings, Endianness : BigCodec ID : A_AC3Duration : 37mn 55sBit rate mode : ConstantBit rate : 224 KbpsChannel(s) : 2 channelsChannel positions : Front: L RSampling rate : 48.0 KHzBit depth : 16 bitsCompression mode : LossyStream size : 60.8 MiB (8%)Language : RussianDefault : YesForced : No
Мои раздачи на тему «Александра Пахмутова»">

Скриншоты Мои раздачи на тему «Александра Пахмутова»


КнигиАудио (lossless)Аудио (mp3)Видео
[teatrix.ru].t11138.torrent 
Торрент: Зарегистрирован [ 2015-12-07 05:05 ] · 0317B97190A20642EEA452B3BCE8B04AB1769627

Скачать .torrent

Скачать

15 KB

Статус: проверено
Скачан: 0 раз
Размер: 739 MB
terms.php



Быстрый ответ

Имя:

      
Для отправки сообщений необходимо включить JavaScript
Показать сообщения:    

Текущее время: 11-Дек 13:01

Часовой пояс: UTC + 3


Вы можете начинать темы
Вы можете отвечать на сообщения
Вы не можете редактировать свои сообщения
Вы не можете удалять свои сообщения
Вы не можете голосовать в опросах
Вы не можете прикреплять файлы к сообщениям
Вы можете скачивать файлы