Неизвестная Мэрилин / Love, Marilyn (Лиз Гарбус / Liz Garbus) [2012, Документальный, биография, DVDRip]


Статистика раздачи [Обновить пиров]
Размер:  1.45 GB   |    Зарегистрирован:  11 месяцев   |    Скачан:  0 раз
Сидов:  14  [  0 KB/s  ]   Подробная статистика пиров
 
   
 
 

[Цитировать]

Неизвестная Мэрилин / Love, Marilyn
Дата/Год выпуска: 2012
Страна: США, Франция, Studiocanal
Жанр: Документальный, биография
Продолжительность: 01:43:08
Перевод: Профессиональный (многоголосый закадровый)
Русские субтитры: нет
Оригинальная аудиодорожка: нет
Режиссер: Лиз Гарбус / Liz Garbus
Описание: Документальный фильм "Неизвестная Мэрилин" режиссера Лиз Гарбус рассказывает о секс-символе Америки - Мэрилин Монро, которая и до сих пор вызывает зависть у многих женщин и будоражит сердца мужчин. Яркая, неординарная личность, она прожила короткую, но насыщенную жизнь. Ее любили и ненавидели, ее боготворили и завидовали. Она утопала в роскоши, она имела многочисленных поклонников и поклонниц. В этой картине, построенной на личных дневниках, письмах и стихах, которые прежде никогда не были достоянием широкой общественности, раскрывается личная жизнь актрисы, а также публичная жизнь кинозвезды. В фильме принимали участие такие современные актрис, как Элизабет Бэнкс, Ума Турман, Эллен Берстин, Гленн Клоуз, Виола Дэвис, Дженнифер Эль, Линдсей Лохан, Лили Тейлор, Мариса Томей, Эван Рейчел Вуд, которые говорят о влиянии Мэрилин Монро на их жизни.
Сэмпл: http://multi-up.com/1008695
качество: DVDRip
формат: AVI
Видео: 720x400 (1.80:1), 25 fps, XviD build 65 ~1816 kbps avg, 0.25 bit/pixel
Аудио: 48 kHz, AC3 Dolby Digital, 2/0 (L,R) ch, ~192 kbps

MediaInfo

GeneralComplete name : L:\Pshichko66\Na zapis'\Документальные фильмы\Love, Marilyn.aviFormat : AVIFormat/Info : Audio Video InterleaveFile size : 1.45 GiBDuration : 1h 43mnOverall bit rate : 2 018 KbpsWriting application : VirtualDubMod 1.5.10.3 | www.virtualdub-fr.org || (build 2550/release)Writing library : VirtualDubMod build 2550/release
VideoID : 0Format : MPEG-4 VisualFormat profile : Advanced Simple@L5Format settings, BVOP : 2Format settings, QPel : NoFormat settings, GMC : No warppointsFormat settings, Matrix : CustomCodec ID : DX50Codec ID/Hint : DivX 5Duration : 1h 43mnBit rate : 1 816 KbpsWidth : 720 pixelsHeight : 400 pixelsDisplay aspect ratio : 16:9Frame rate : 25.000 fpsColor space : YUVChroma subsampling : 4:2:0Bit depth : 8 bitsScan type : ProgressiveCompression mode : LossyBits/(Pixel*Frame) : 0.252Stream size : 1.31 GiB (90%)Writing library : XviD 65
AudioID : 1Format : AC-3Format/Info : Audio Coding 3Mode extension : CM (complete main)Format settings, Endianness : BigCodec ID : 2000Duration : 1h 43mnBit rate mode : ConstantBit rate : 192 KbpsChannel count : 2 channelsChannel positions : Front: L RSampling rate : 48.0 KHzBit depth : 16 bitsCompression mode : LossyStream size : 142 MiB (10%)Alignment : Split accross interleavesInterleave, duration : 40 ms (1.00 video frame)Interleave, preload duration : 500 ms

Скриншоты

[teatrix.ru].t11139.torrent 
Торрент: Зарегистрирован [ 2015-12-07 05:05 ] · EE434B0DFBDAB2DBAC7ECC353B6D0C5D829CAC87

Скачать .torrent

Скачать

15 KB

Статус: проверено
Скачан: 0 раз
Размер: 1.45 GB
terms.php



Быстрый ответ

Имя:

      
Для отправки сообщений необходимо включить JavaScript
Показать сообщения:    

Текущее время: 04-Дек 06:58

Часовой пояс: UTC + 3


Вы можете начинать темы
Вы можете отвечать на сообщения
Вы не можете редактировать свои сообщения
Вы не можете удалять свои сообщения
Вы не можете голосовать в опросах
Вы не можете прикреплять файлы к сообщениям
Вы можете скачивать файлы