Семейный канал (выпуск с участием Александры Пахмутовой и Николая Добронравова) (Андрей Дементьев) [09.05.1996, интервью, VHSRip]


Статистика раздачи [Обновить пиров]
Размер:  486 MB   |    Зарегистрирован:  11 месяцев 27 дней   |    Скачан:  0 раз

Полного источника не было: Никогда

 
   
 
 
 

[Цитировать]

Семейный канал (выпуск с участием Александры Пахмутовой и Николая Добронравова)
Дата и время выпуска: 09.05.1996 09:45
Страна: Россия
Телеканал: Российские университеты
Жанр: интервью
Продолжительность: 00:25:16
Перевод: Не требуется
Ведущий: Андрей Дементьев
Описание:
В середине 1990-х годов Александра Пахмутова и Николай Добронравов после долгого перерыва вновь вернулись к российскому телезрителю и радиослушателю. Значительную роль в этом возвращении сыграли друзья творческой пары, имевшие собственные авторские программы на телевидении и радио. Удачная иллюстрация тому — выпуск телепрограммы Андрея Дементьева «Семейный канал», вышедший в эфир 9 мая 1996 года на телеканале «Российские университеты».
Качество: VHSRip
Формат: MKV
Видео: AVC, 704x576 (4:3), 2 441 Kbps, 25 fps
Аудио: AC-3, 48 KHz, 192 Kbps (CBR), 2 ch
Сэмпл: http://sendfile.su/1038736

MediaInfo

GeneralUnique ID : 189702609091194474617888605062194472700 (0x8EB764BEE331CD599563FD2DF3FB26FC)Complete name : D:\1996-05-09 Российские университеты Семейный канал.mkvFormat : MatroskaFormat version : Version 4 / Version 2File size : 486 MiBDuration : 25mn 16sOverall bit rate mode : VariableOverall bit rate : 2 687 KbpsEncoded date : UTC 2014-10-22 22:50:04Writing application : mkvmerge v7.2.0 ('On Every Street') 64bit built on Sep 13 2014 15:52:10Writing library : libebml v1.3.0 + libmatroska v1.4.1DURATION : 00:25:15.840000000NUMBER_OF_FRAMES : 47370NUMBER_OF_BYTES : 36380160_STATISTICS_WRITING_APP : mkvmerge v7.2.0 ('On Every Street') 64bit built on Sep 13 2014 15:52:10_STATISTICS_WRITING_DATE_UTC : 2014-10-22 22:50:04_STATISTICS_TAGS : BPS DURATION NUMBER_OF_FRAMES NUMBER_OF_BYTES
VideoID : 1Format : AVCFormat/Info : Advanced Video CodecFormat profile : Main@L3.1Format settings, CABAC : YesFormat settings, ReFrames : 3 framesFormat settings, GOP : M=4, N=25Codec ID : V_MPEG4/ISO/AVCDuration : 25mn 16sBit rate mode : VariableBit rate : 2 441 KbpsMaximum bit rate : 6 000 KbpsWidth : 704 pixelsHeight : 576 pixelsDisplay aspect ratio : 4:3Frame rate mode : ConstantFrame rate : 25.000 fpsStandard : PALColor space : YUVChroma subsampling : 4:2:0Bit depth : 8 bitsScan type : InterlacedScan order : Top Field FirstBits/(Pixel*Frame) : 0.241Stream size : 441 MiB (91%)Default : YesForced : No
AudioID : 2Format : AC-3Format/Info : Audio Coding 3Mode extension : CM (complete main)Format settings, Endianness : BigCodec ID : A_AC3Duration : 25mn 16sBit rate mode : ConstantBit rate : 192 KbpsChannel(s) : 2 channelsChannel positions : Front: L RSampling rate : 48.0 KHzBit depth : 16 bitsCompression mode : LossyDelay relative to video : 200msStream size : 34.7 MiB (7%)Language : RussianDefault : YesForced : No
Мои раздачи на тему «Александра Пахмутова»">

Скриншоты Мои раздачи на тему «Александра Пахмутова»


КнигиАудио (lossless)Аудио (mp3)Видео
[teatrix.ru].t11140.torrent 
Торрент: Зарегистрирован [ 2015-12-07 05:05 ] · 378EAB95587A3795A8E52BDE922022649ED31377

Скачать .torrent

Скачать

20 KB

Статус: проверено
Скачан: 0 раз
Размер: 486 MB
terms.php



Быстрый ответ

Имя:

      
Для отправки сообщений необходимо включить JavaScript
Показать сообщения:    

Текущее время: 03-Дек 12:37

Часовой пояс: UTC + 3


Вы можете начинать темы
Вы можете отвечать на сообщения
Вы не можете редактировать свои сообщения
Вы не можете удалять свои сообщения
Вы не можете голосовать в опросах
Вы не можете прикреплять файлы к сообщениям
Вы можете скачивать файлы