Честь имею, Ханжонков (Гузель Гатауллина) [2007, Документальный, DVDRip]


Статистика раздачи [Обновить пиров]
Размер:  684 MB   |    Зарегистрирован:  11 месяцев   |    Скачан:  1 раз

Полного источника не было: 4 месяца 6 дней

 
   
 
 
 

[Цитировать]

Честь имею, Ханжонков
Дата/Год выпуска: 2007
Страна: Россия
Жанр: Документальный
Продолжительность: 00:43:16
Перевод: Не требутся
Режиссер: Гузель Гатауллина
Описание: В мировом кино немало разбитых творческих судеб. В России этот грустный перечень открывает Александр Ханжонков. Вся жизнь и деятельность этого уникального человека пронизана любовью к Родине - России. Но, как часто бывает, Родина, подобно ветреной красавице, то распахивала перед Ханжонковым свои объятья, а чаще просто отворачивалась от него, забывая о заслугах и обвиняя в несуществующих грехах...
Доп. информация: Производство ООО «Техновид» при поддержке Федерального агентства по культуре и кинематографии
качество: DVDRip
формат: MP4
Видео: H.264, 720x576, 4:3, Frame Rate: 25.00, Bitrate: 1.95 Mbps
Аудио: AAC, 256 Kbps, 48KHz, 2Ch

MediaInfo

ОбщееПолное имя : /Volumes/Elements/Кино/Честь имею, Ханжонков.mp4Формат : MPEG-4Профиль формата : Base MediaИдентификатор кодека : isomРазмер файла : 684 МбайтПродолжительность : 43 м.Общий поток : 2211 Кбит/секДата кодирования : UTC 1904-01-01 00:00:00Дата пометки : UTC 1904-01-01 00:00:00Программа кодирования : Lavf55.33.100
ВидеоИдентификатор : 2Формат : AVCФормат/Информация : Advanced Video CodecПрофиль формата : Main@L3.0Параметр CABAC формата : ДаПараметр ReFrames формата : 2 кадраПараметр GOP формата : N=1Идентификатор кодека : avc1Идентификатор кодека/Информация : Advanced Video CodingПродолжительность : 43 м.Битрейт : 1950 Кбит/секШирина : 720 пикселейВысота : 576 пикселейСоотношение сторон : 4:3Соотношение сторон в оригинале : 4:3Режим частоты кадров : ПостоянныйЧастота кадров : 25,000 кадров/секСтандарт вещания : PALЦветовое пространство : YUVСубдискретизация насыщенности : 4:2:0Битовая глубина : 8 битТип развёртки : ПрогрессивнаяБит/(Пиксели*Кадры) : 0.188Размер потока : 604 Мбайт (88%)Дата кодирования : UTC 1904-01-01 00:00:00Дата пометки : UTC 1904-01-01 00:00:00
АудиоИдентификатор : 1Формат : AACФормат/Информация : Advanced Audio CodecПрофиль формата : LCИдентификатор кодека : 40Продолжительность : 43 м.Duration_LastFrame : -9 мс.Вид битрейта : ПостоянныйБитрейт : 256 Кбит/секКаналы : 2 каналаРасположение каналов : Front: L RЧастота : 48,0 КГцМетод сжатия : С потерямиРазмер потока : 79,2 Мбайт (12%)Дата кодирования : UTC 1904-01-01 00:00:00Дата пометки : UTC 1904-01-01 00:00:00

Скриншоты

[teatrix.ru].t11141.torrent 
Торрент: Зарегистрирован [ 2015-12-07 05:05 ] · 3326EB2456C9806F1F78A4EA9E3A68489F4427CE

Скачать .torrent

Скачать

14 KB

Статус: проверено
Скачан: 1 раз
Размер: 684 MB
terms.php



Быстрый ответ

Имя:

      
Для отправки сообщений необходимо включить JavaScript
Показать сообщения:    

Текущее время: 05-Дек 05:30

Часовой пояс: UTC + 3


Вы можете начинать темы
Вы можете отвечать на сообщения
Вы не можете редактировать свои сообщения
Вы не можете удалять свои сообщения
Вы не можете голосовать в опросах
Вы не можете прикреплять файлы к сообщениям
Вы можете скачивать файлы