[TR24][SM][OF] Khatia Buniatishvili - Motherland (Bach JS, Tchaikovsky/Чайковский, Mendelssohn, Debussy, Kancheli, Ligeti, Brahms, Liszt, Dvorak, Ravel, Chopin, Scriabin, Scarlatti D, Grieg, Buniatishvili, Handel, Part) - 2014 (Classical, Piano)


Статистика раздачи [Обновить пиров]
Размер:  1005 MB   |    Зарегистрирован:  11 месяцев 27 дней   |    Скачан:  0 раз

Полного источника не было: Никогда

 
   
 
 
 

[Цитировать]

Khatia Buniatishvili - Motherland
Год издания: 2014
Жанр: Classical, Piano
Издатель (лейбл): Sony Classical/CDVP 1964047
Продолжительность: 01:05:54
Наличие сканов: да-Контейнер: FLAC (*.flac)
Тип рипа: tracks
Разрядность: 24bit / 96kHz
Количество каналов: 2.0-Исполнители:
Khatia Buniatishvili - Piano

Треклист:

Johann Sebastian Bach
01. Cantata BWV 208 - Aria. Schafe konnen sicher weiden (04:55)
Pyotr Il'yich Tchaikovsky
02. The Seasons No.10 Op.37b - October. Autumn Song (04:55)
Felix Mendelssohn
03. Lied ohne Worte in F sharp minor Op.67 No.2 (01:48)
Claude Debussy
04. Clair de Lune (05:38)
Giya Kancheli
05. Tune from the Film by Lana Gogoberidze - When Almonds Blossomed (02:11)
György Ligeti
06. Musica ricercata No.7 in B flat major (02:54)
Johannes Brahms
07. Intermezzo in B flat minor Op.117 No.2 (05:15)
Franz Liszt
08. Wiegenlied S198 (03:14)
Antonin Dvorák
09. Slavonic Dance for Four Hands in E minor Op.72 No.2 - Dumka (03:23)
Maurice Ravel
10. Pavane pour une infante defunte (06:00)
Frédéric Chopin
11. Etude in C sharp minor Op.25 No.7 (04:44)
Alexander Scriabin
12. Etude in C sharp minor Op.2 No.1 (02:29)
Domenico Scarlatti
13. Sonata in E major K380 (02:56)
Edvard Grieg
14. Lyric Piece in E minor Op.57 No.6 - Homesickness (03:49)
Khatia Buniatishvili
15. Vagiorko mai (Don't You Love Me?) (02:41)
George Frederick Händel
16. Menuet from Suite in G minor HWV 439 (03:56)
Arvo Pärt
17. Fur Alina in B minor (05:03)

Динамический диапазон - DR14:

foobar2000 1.3.2 / Замер динамического диапазона (DR) 1.1.1Дата отчёта: 2015-11-25 22:40:02
--------------------------------------------------------------------------------Анализ: Khatia Buniatishvili / Motherland--------------------------------------------------------------------------------
DR Пики RMS Продолжительность трека--------------------------------------------------------------------------------DR14 -9.30 дБ -29.56 дБ 4:55 01-Cantata BWV 208 - Aria. Schafe konnen sicher weidenDR13 -9.81 дБ -30.76 дБ 4:55 02-The Seasons No.10 Op.37b - October. Autumn SongDR11 -2.75 дБ -18.69 дБ 1:48 03-Lied ohne Worte in F sharp minor Op.67 No.2DR17 -0.81 дБ -26.37 дБ 5:38 04-Clair de LuneDR12 -11.89 дБ -31.85 дБ 2:11 05-Tune from the Film by Lana Gogoberidze - When Almonds BlossomedDR13 -9.84 дБ -27.09 дБ 2:54 06-Musica ricercata No.7 in B flat majorDR13 -4.12 дБ -23.36 дБ 5:15 07-Intermezzo in B flat minor Op.117 No.2DR14 -9.78 дБ -33.97 дБ 3:14 08-Wiegenlied S198DR15 -0.36 дБ -20.61 дБ 3:23 09-Slavonic Dance for Four Hands in E minor Op.72 No.2 - DumkaDR16 -2.24 дБ -25.45 дБ 6:00 10-Pavane pour une infante defunteDR15 -0.20 дБ -22.22 дБ 4:44 11-Etude in C sharp minor Op.25 No.7DR12 -2.96 дБ -22.48 дБ 2:29 12-Etude in C sharp minor Op.2 No.1DR13 -7.21 дБ -24.71 дБ 2:56 13-Sonata in E major K380DR14 -8.40 дБ -27.97 дБ 3:49 14-Lyric Piece in E minor Op.57 No.6 - HomesicknessDR11 0.00 дБ -16.87 дБ 2:41 15-Vagiorko mai (Don't You Love Me?)DR13 -9.22 дБ -27.12 дБ 3:56 16-Menuet from Suite in G minor HWV 439DR16 -26.38 дБ -48.22 дБ 5:03 17-Fur Alina in B minor--------------------------------------------------------------------------------
Количество треков: 17Реальные значения DR: DR14
Частота: 96000 ГцКаналов: 2Разрядность: 24Битрейт: 1994 кбит/сКодек: FLAC================================================================================
[teatrix.ru].t11142.torrent 
Торрент: Зарегистрирован [ 2015-12-07 05:05 ] · 47A2BEA7A2FE0A8AFF2157E16FE7CD943369C745

Скачать .torrent

Скачать

22 KB

Статус: проверено
Скачан: 0 раз
Размер: 1005 MB
terms.php



Быстрый ответ

Имя:

      
Для отправки сообщений необходимо включить JavaScript
Показать сообщения:    

Текущее время: 04-Дек 02:53

Часовой пояс: UTC + 3


Вы можете начинать темы
Вы можете отвечать на сообщения
Вы не можете редактировать свои сообщения
Вы не можете удалять свои сообщения
Вы не можете голосовать в опросах
Вы не можете прикреплять файлы к сообщениям
Вы можете скачивать файлы