[TR24][OF] Handel - Arias. La Resurrezione, Rodrigo, Il Trionfo del Tiempo e del Disinganno, Agrippina, Salve Regina, Apollo e Dafne (Julia Lezhneva/Юлия Лежнева, Il Giardino Armonico, Giovanni Antonini) - 2015 (Baroque, Vocal)


Статистика раздачи [Обновить пиров]
Размер:  1.25 GB   |    Зарегистрирован:  11 месяцев 27 дней   |    Скачан:  0 раз

Полного источника не было: Никогда

 
   
 
 
 

[Цитировать]

Handel - Arias. La Resurrezione, Rodrigo, Il Trionfo del Tiempo e del Disinganno, Agrippina, Salve Regina, Apollo e Dafne (Julia Lezhneva/Юлия Лежнева, Il Giardino Armonico, Giovanni Antonini)
Формат записи/Источник записи: [TR24][OF]
Наличие водяных знаков: Нет
Год издания/переиздания диска: 2015
Жанр: Baroque, Vocal
Издатель(лейбл): DECCA
Продолжительность: 01:19:49
Наличие сканов в содержимом раздачи: Нет
Треклист:
George Frideric Handel:
1. La Resurrezione (1708), HWV 47 - Parte Prima - Aria: "Disserratevi, o porte d'Averno" (Angelo) 4:50
2. Rodrigo, HWV 5 - Act 1: "Per dar pregio all'amor mio" 9:08
3. Il Trionfo del Tiempo e del Disinganno, HWV 46a: "Lascia la spina cogli la rosa" 6:33
4. Dixit Dominus, HWV 232: 3. Tecum principium in die virtutis 2:49
5. Agrippina, HWV 6 - Sinfonia 3:53
Salve Regina HWV 241:
6. Salve Regina 3:15
7. Ad te clamamus 3:46
8. Eia ergo, advocata nostro 3:29
9. O clemens, o pia 2:07
10. Agrippina, HWV 6 - Act 2: Pensieri, voi mi tormentate! 6:32
11. Il Trionfo del Tiempo e del Disinganno, HWV 46a: "Un pensiero nemico di pace" 3:56
12. Apollo e Dafne, HWV 122: Felicissima quest'alma 5:56
Il Trionfo del Tiempo e del Disinganno, HWV 46a
13. "Come nembo che fugge col vento" 5:04
14. "Pure del Cielo intelligenze eterne" 1:19
15. "Tu del Ciel ministro eletto" 7:12
Контейнер: FLAC (*.flac)
Тип рипа: tracks
Разрядность: 24/96
Формат: flac
Количество каналов: 2.0

Лог проверки качества

foobar2000 1.2.2 / Замер динамического диапазона (DR) 1.1.1Дата отчёта: 2015-11-14 14:34:48
--------------------------------------------------------------------------------Анализ: Il Giardino Armonico / Julia Lezhneva - Handel (1) Julia Lezhneva/Dmitry Sinkovsky/Il Giardino Armonico / Julia Lezhneva - Handel (2-3) Julia Lezhneva/Dmitry Sinkovsky/Marco Bianchi/Thomas Meraner/Il Giardino Armonico / Julia Lezhneva - Handel (4) Julia Lezhneva/Il Giardino Armonico / Julia Lezhneva - Handel (5-16)--------------------------------------------------------------------------------
DR Пики RMS Продолжительность трека--------------------------------------------------------------------------------DR14 -3.66 дБ -21.83 дБ 3:53 ?-Agrippina, HWV 6: SinfoniaDR13 -0.79 дБ -19.51 дБ 9:08 ?-Rodrigo, HWV 5 / Act 1: 'Per dar pregio all’amor mio'DR16 -5.53 дБ -27.77 дБ 7:12 ?-Il Trionfo del Tiempo e del Disinganno, HWV 46a - Oratorio: 'Tu del Ciel ministro eletto'DR12 -2.97 дБ -19.62 дБ 5:04 ?-Il Trionfo del Tiempo e del Disinganno, HWV 46a - Oratorio: 'Come nembo che fugge col vento'DR11 -1.98 дБ -16.34 дБ 4:50 ?-La Resurrezione (1708), HWV 47 / Parte Prima: 'Disserratevi, o porte d'Averno'DR14 -1.33 дБ -21.87 дБ 6:33 ?-Il Trionfo del Tiempo e del Disinganno, HWV 46a - Oratorio: 'Lascia la spina cogli la rosa'DR11 -2.38 дБ -17.54 дБ 2:49 ?-Dixit Dominus, HWV 232: Tecum principium in die virtutisDR11 -2.70 дБ -18.90 дБ 3:15 ?-Salve ReginaDR12 -1.70 дБ -19.28 дБ 3:46 ?-Salve Regina HWV 241: Ad te clamamusDR11 -2.38 дБ -17.62 дБ 3:29 ?-Salve Regina HWV 241: Eia ergo, advocata nostroDR13 -2.70 дБ -23.46 дБ 2:07 ?-Salve Regina HWV 241: O clemens, o piaDR11 -3.35 дБ -19.55 дБ 6:32 ?-Agrippina, HWV 6 / Act 2: 'Pensieri, voi mi tormentate!'DR14 -1.86 дБ -20.08 дБ 3:56 ?-Il Trionfo del Tiempo e del Disinganno, HWV 46a - Oratorio: 'Un pensiero nemico di pace'DR14 -2.70 дБ -21.49 дБ 5:56 ?-Apollo e Dafne, HWV 122: 'Felicissima quest'alma'DR11 -3.04 дБ -19.38 дБ 1:19 ?-Il Trionfo del Tiempo e del Disinganno, HWV 46a - Oratorio: 'Pure del cielo intelligenze eterne'DR12 -2.96 дБ -19.37 дБ 4:16 ?-Messiah, HWV 56 / Pt. 1: 'Rejoice Greatly, O Daughter Of Zion'--------------------------------------------------------------------------------
Количество треков: 16Реальные значения DR: DR13
Частота: 96000 ГцКаналов: 2Разрядность: 24Битрейт: 2489 кбит/сКодек: FLAC================================================================================
Источник (релизер): WEB
Оркестр: Il Giardino Armonico
Композитор: George Frideric Handel
Дирижер: Giovanni Antonini
Исполнитель:
Юлия Лежнева/Julia Lezhneva, soprano.
Il Giardino Armonico, Orchestra,
Giovanni Antonini, Conductor.
Recorded at Giovanni Arvedi Auditorium, Cremona, Italy, January 2015.
http://www.qobuz.com/fr-fr/album/handel-julia-lezhn...co/0002894788434
[teatrix.ru].t11143.torrent 
Торрент: Зарегистрирован [ 2015-12-07 05:05 ] · E2A3C725B33F9E9D373F6957ABF213F8674F802B

Скачать .torrent

Скачать

14 KB

Статус: проверено
Скачан: 0 раз
Размер: 1.25 GB
terms.php



Быстрый ответ

Имя:

      
Для отправки сообщений необходимо включить JavaScript
Показать сообщения:    

Текущее время: 03-Дек 09:45

Часовой пояс: UTC + 3


Вы можете начинать темы
Вы можете отвечать на сообщения
Вы не можете редактировать свои сообщения
Вы не можете удалять свои сообщения
Вы не можете голосовать в опросах
Вы не можете прикреплять файлы к сообщениям
Вы можете скачивать файлы