[TR24][OF] Antonio Maria Montanari - Violin Concertos (Johannes Pramsohler and Ensemble Diderot), World Premiere Recording - 2015 (Classical, Concert for violin and orchestra)


Статистика раздачи [Обновить пиров]
Размер:  1.21 GB   |    Зарегистрирован:  1 год   |    Скачан:  1 раз

Полного источника не было: 27 дней

Личеров:  1  [  0 KB/s  ]   Подробная статистика пиров
 
   
 
 
 

[Цитировать]

Antonio Maria Montanari - Violin Concertos (Johannes Pramsohler and Ensemble Diderot)
Формат записи/Источник записи: [TR24][OF]
Наличие водяных знаков: Нет
Год издания/переиздания диска: 2015
Жанр: Classical, concert for violin and orchestra
Издатель(лейбл): Audax Records
Продолжительность: 59:47
Исполнители:
Johannes Pramsohler, violin,
Ensemble Diderot.
Контейнер: FLAC (*.flac)
Тип рипа: tracks
Разрядность: 24/96
Количество каналов: 2.0
Источник: qobuz

Dynamic Range Meter

foobar2000 1.3.8 / Dynamic Range Meter 1.1.1log date: 2015-09-26 12:48:34
--------------------------------------------------------------------------------Analyzed: Ensemble Diderot, Johannes Pramsohler / Montanari: Violin Concertos--------------------------------------------------------------------------------
DR Peak RMS Duration Track--------------------------------------------------------------------------------DR14 -2.85 dB -20.03 dB 3:29 01-Concerto in C Major, "Dresden": I. AllegroDR12 -7.06 dB -22.61 dB 2:54 02-Concerto in C Major, "Dresden": II. LargoDR14 -3.02 dB -20.53 dB 3:32 03-Concerto in C Major, "Dresden": III. AllegroDR14 -1.73 dB -19.94 dB 3:39 04-Concerto in E-flat Major, Op.1, No.6: I. Adagio e staccatoDR13 -1.85 dB -19.33 dB 2:44 05-Concerto in E-flat Major, Op.1, No.6: II. AllegroDR12 -3.37 dB -20.42 dB 3:23 06-Concerto in E-flat Major, Op.1, No.6: III. LargoDR13 -3.02 dB -19.52 dB 4:30 07-Concerto in E-flat Major, Op.1, No.6: IV. AllegroDR12 -4.10 dB -22.22 dB 1:56 08-Concerto in A Major, Op.1, No.1: I. AdagioDR13 -2.57 dB -18.77 dB 3:16 09-Concerto in A Major, Op.1, No.1: II. AllegroDR12 -6.09 dB -22.57 dB 2:21 10-Concerto in A Major, Op.1, No.1: III. AmorosoDR13 -1.01 dB -19.43 dB 2:39 11-Concerto in A Major, Op.1, No.1: IV. AllegroDR13 -3.78 dB -19.30 dB 2:41 12-Concerto in C Major, Op.1, No.5: I. AllegroDR10 -5.84 dB -20.34 dB 0:45 13-Concerto in C Major, Op.1, No.5: II. AdagioDR12 -3.50 dB -19.91 dB 2:40 14-Concerto in C Major, Op.1, No.5: III. AllegroDR13 -2.96 dB -20.32 dB 2:26 15-Concerto in E Major, Op.1, No.7: I. AdagioDR13 -4.23 dB -20.53 dB 2:26 16-Concerto in E Major, Op.1, No.7: II. AllegroDR12 -5.85 dB -23.07 dB 2:17 17-Concerto in E Major, Op.1, No.7: III. AdagioDR13 -3.85 dB -19.61 dB 2:39 18-Concerto in E Major, Op.1, No.7: IV. AllegroDR11 -4.34 dB -19.66 dB 2:10 19-Concerto in A Major, Op.1, No.8: I. AdagioDR14 -1.92 dB -19.01 dB 2:08 20-Concerto in A Major, Op.1, No.8: II. AllegroDR12 -6.69 dB -22.56 dB 2:46 21-Concerto in A Major, Op.1, No.8: III. GraveDR13 -1.02 dB -18.30 dB 2:37 22-Concerto in A Major, Op.1, No.8: IV. Vivace--------------------------------------------------------------------------------
Number of tracks: 22Official DR value: DR13
Samplerate: 96000 HzChannels: 2Bits per sample: 24Bitrate: 2921 kbpsCodec: FLAC================================================================================

Треклист

Concerto in C Major, "Dresden"
01 - Allegro 03:29
02 - Largo 02:54
03 - Allegro 03:32
Concerto in E-flat Major, Op.1, No.6
04 - Adagio e staccato 03:38
05 - Allegro 02:43
06 - Largo 03:22
07 - Allegro 04:29
Concerto in A Major, Op.1, No.1
08 - Adagio 01:56
09 - Allegro 03:15
10 - Amoroso 02:21
11 - Allegro 02:38
Concerto in C Major, Op.1, No.5
12 - Allegro 02:41
13 - Adagio 00:44
14 - Allegro 02:40
Concerto in E Major, Op.1, No.7
15 - Adagio 02:25
16 - Allegro 02:25
17 - Adagio 02:17
18 - Allegro 02:38
Concerto in A Major, Op.1, No.8 *
19 - Adagio 02:10
20 - Allegro 02:08
21 - Grave 02:46
22 - Vivace 02:37
World Premiere Recording
* This concerto has previously been recorded by the European Union Baroque Orchestra
[teatrix.ru].t11146.torrent 
Торрент: Зарегистрирован [ 2015-12-07 05:05 ] · 1119610BD2D477606CAEB61FC76557181840E750

Скачать .torrent

Скачать

15 KB

Статус: проверено
Скачан: 1 раз
Размер: 1.21 GB
terms.php



Быстрый ответ

Имя:

      
Для отправки сообщений необходимо включить JavaScript
Показать сообщения:    

Текущее время: 10-Дек 17:46

Часовой пояс: UTC + 3


Вы можете начинать темы
Вы можете отвечать на сообщения
Вы не можете редактировать свои сообщения
Вы не можете удалять свои сообщения
Вы не можете голосовать в опросах
Вы не можете прикреплять файлы к сообщениям
Вы можете скачивать файлы