[TR24][SM][OF] The Sound of Glenn Gould (Bach, Mozart, Beethoven, Haydn, Brahms, Sibelius, Strauss) - 2015 (Classical)


Статистика раздачи [Обновить пиров]
Размер:  707 MB   |    Зарегистрирован:  1 год   |    Скачан:  1 раз

Полного источника не было: 5 дней

 
   
 
 
 

[Цитировать]

·
·
·

THE SOUND OF
GLENN GOULD
Жанр: Miscellanious
Носитель: Official Digital Download
Год издания: 1956-1984
Издатель (лейбл): © Sony Music Entertainment
Номер по каталогу: G010003289127L
Продолжительность: 01:16:36
Наличие сканов в содержимом раздачи: artwork
Контейнер: FLAC (*.flac)
Разрядность: 24/44,1
Количество каналов: 2.0
Формат: tracks
Источник: qobuz
Pелизер: WEB (thanks to the original customer)

Треклист

Johann Sebastian Bach (1685-1750)
Aria with 30 Variations "Goldberg Variations" BWV 988
01 - Aria
02 - Variation 1 a 1 Clav.
03 - Variation 2 a 1 Clav.
04 - Variation 3 a 1 Clav. Canone all' Unisuono

Johannes Brahms (1833-1897)
05 - Intermezzo in A major op. 118/2
Johann Sebastian Bach (1685-1750)
Concerto for Keyboard and Orchestra No. 5 in F minor BWV 1056 *
06 - II. Largo
Ludwig van Beethoven (1770-1827)
Sonata No. 14 in C-sharp minor "Moonlight" op. 27/2
07 - I. Adagio sostenuto
Johann Sebastian Bach (1685-1750)
Concerto for Keyboard and Orchestra No. 2 in E major BWV 1053 *
08 - II. Siciliano
Wolfgang Amadeus Mozart (1756-1791)
Piano Sonata No. 11 in A major K 331(300i)
09 - III. [Rondo] Alla Turca. Allegretto
Ludwig van Beethoven (1770-1827)
Concerto for Piano and Orchestra No. 4 in G major op. 58 **
10 - III. Rondo. Vivace
Joseph Haydn (1732-1809)
Piano Sonata in D major Hob. XVI:51
11 - I. Andante
Johann Sebastian Bach (1685-1750)
Concerto for Keyboard and Orchestra No. 3 in D major BWV 1054 *
12 - I. [Allegro]
Jean Sibelius (1865-1957)
Sonatine for Piano in F-sharp minor op. 67/1
13 - III. Allegro moderato
Johann Sebastian Bach (1685-1750)
14 - 2-Part Invention No. 8 in F major BWV 779
Ludwig van Beethoven (1770-1827)
Piano Sonata No. 17 in D minor "The Tempest" op. 31/2
15 - III. Allegretto
Johann Sebastian Bach (1685-1750)
Italian Concerto in F major BWV 971
16 - I. [Allegro]
Richard Strauss (1864-1949)
Fünf Klavierstücke op. 3
17 - I. Andante
Ludwig van Beethoven (1770-1827)
Piano Sonata No. 8 in C minor "Pathétique" op. 13
18 - II. Adagio cantabile
Johann Sebastian Bach (1685-1750)
19 - Little Prelude in C major BWV 933
Aria with 30 Variations "Goldberg Variations" BWV 988
20 - Variatio 30 a 1 Clav. Quodlibet
21 - Aria da capo

Исполнители

Glenn Gould piano
Columbia Symphony Orchestra · Vladimir Golschmann *
New York Philharmonic · Leonard Bernstein **

Dynamic Range Meter

foobar2000 1.2.6 / Dynamic Range Meter 1.1.1log date: 2015-09-19 08:19:04
--------------------------------------------------------------------------------Analyzed: Glenn Gould, Main Artist, Piano - Jean Sibelius, Composer - Andrew Kazdin, Producer - Kent Warden, Recording Engineer - Frank Dean Dennowitz, Recording Engineer / Glenn Gould : The Sound of Glenn Gould (1) Glenn Gould, Main Artist, Piano - Johann Sebastian Bach, Composer - Andrew Kazdin, Producer - Vladimir Golschmann, Conductor - Columbia Symphony Orchestra, Associated Performer / Glenn Gould : The Sound of Glenn Gould (2) Glenn Gould, Main Artist, Piano - Johann Sebastian Bach, Composer - Columbia Symphony Orchestra, Associated Performer - Vladimir Golschmann, Conductor - Charles Libove, Violin - Andrew Kazdin, Producer - Robert Waller, Recording Engineer - John Guerriere, Recording Engineer / Glenn Gould : The Sound of Glenn Gould (3) Glenn Gould, Main Artist, Piano - Johann Sebastian Bach, Composer - Howard H. Scott, Producer / Glenn Gould : The Sound of Glenn Gould (4-8) Glenn Gould, Main Artist, Piano - Johann Sebastian Bach, Composer - Paul Myers, Producer / Glenn Gould : The Sound of Glenn Gould (9) Glenn Gould, Main Artist, Piano - Johann Sebastian Bach, Composer - Vladimir Golschmann, Conductor - Columbia Symphony Orchestra, Associated Performer - Charles Libove, Violin - Howard H. Scott, Producer / Glenn Gould : The Sound of Glenn Gould (10) Glenn Gould, Main Artist, Piano - Johannes Brahms, Composer - Joseph Scianni, Producer / Glenn Gould : The Sound of Glenn Gould (11) Glenn Gould, Main Artist, Piano - Ludwig van Beethoven, Composer - Andrew Kazdin, Producer - Fred Plaut, Recording Engineer - Kent Warden, Recording Engineer - Milton Cherin, Recording Engineer / Glenn Gould : The Sound of Glenn Gould (12) Glenn Gould, Main Artist, Piano - Ludwig van Beethoven, Composer - Andrew Kazdin, Producer - Robert Waller, Recording Engineer - Milton Cherin, Recording Engineer / Glenn Gould : The Sound of Glenn Gould (13) Glenn Gould, Main Artist, Piano - Ludwig van Beethoven, Composer - Andrew Kazdin, Producer / Glenn Gould : The Sound of Glenn Gould (14) Glenn Gould, Main Artist, Piano - Ludwig van Beethoven, Composer - Leonard Bernstein, Associated Performer - New York Philharmonic Orchestra, Associated Performer - Howard H. Scott, Producer / Glenn Gould : The Sound of Glenn Gould (15) Glenn Gould, Main Artist, Piano - Wolfgang Amadeus Mozart, Composer - Andrew Kazdin, Producer - Fred Plaut, Recording Engineer - Kent Warden, Recording Engineer - Milton Cherin, Recording Engineer - Stan Tonkel, Recording Engineer / Glenn Gould : The Sound of Glenn Gould (16) Glenn Gould, Main Artist, Piano, Producer - Johann Sebastian Bach, Composer - Andrew Kazdin, Producer - Dietmar Niemietz, Recording Engineer - Kent Warden, Recording Engineer - Thomas Shipton, Recording Engineer / Glenn Gould : The Sound of Glenn Gould (17) Glenn Gould, Main Artist, Piano, Producer - Johann Sebastian Bach, Composer - Samuel H. Carter, Producer - Stan Tonkel, Recording Engineer - Martin Greenblatt, Recording Engineer - Ray Moore, Recording Engineer - John Johnson, Recording Engineer / Glenn Gould : The Sound of Glenn Gould (18-19) Glenn Gould, Main Artist, Piano, Producer - Joseph Haydn, Composer - Samuel H. Carter, Producer - Stan Tonkel, Recording Engineer - Martin Greenblatt, Recording Engineer - Ray Moore, Recording Engineer - John Johnson, Recording Engineer - Richard Einhorn, Editor / Glenn Gould : The Sound of Glenn Gould (20) Glenn Gould, Main Artist, Piano, Producer - Richard Strauss, Composer - Andrew Kazdin, Producer - Kent Warden, Recording Engineer - Kevin Doyle, Recording Engineer / Glenn Gould : The Sound of Glenn Gould (21)--------------------------------------------------------------------------------
DR Peak RMS Duration Track--------------------------------------------------------------------------------DR12 -2.80 dB -20.49 dB 1:40 13-Three Sonatines for Piano, Op. 67:Sonatina No.1 in F-Sharp Minor: III. Allegro moderato (Remastered)DR12 -0.64 dB -16.74 dB 7:48 12-Keyboard Concerto No. 3 in D Major, BWV 1054:I. Allegro (Remastered)DR13 -1.79 dB -21.50 dB 4:39 08-Keyboard Concerto No. 2 in E Major, BWV 1053:II. Siciliano (Remastered)DR12 -6.45 dB -23.00 dB 1:52 01-Goldberg Variations, BWV 988 - Highlights:Aria (Remastered)DR9 -5.65 dB -17.01 dB 0:45 02-Goldberg Variations, BWV 988 - Highlights:Variation 1 a 1 Clav. (Remastered)DR10 -4.75 dB -17.84 dB 0:38 03-Goldberg Variations, BWV 988 - Highlights:Variation 2 a 1 Clav. (Remastered)DR10 -4.90 dB -18.71 dB 0:58 04-Goldberg Variations, BWV 988 - Highlights:Variation 3 a 1 Clav. Canone all' Unisuono (Remastered)DR12 -3.12 dB -17.95 dB 4:08 16-Italian Concerto in F Major, BWV 971 - Version of 1959:I. - (Remastered)DR10 -3.69 dB -15.88 dB 1:06 14-Invention No. 8 in F Major, BWV 779 (Remastered)DR13 -11.98 dB -30.98 dB 2:59 06-Concerto for Piano and Orchestra No. 5 in F Minor, BWV 1056:II. Largo (Remastered)DR14 -4.66 dB -24.75 dB 5:49 05-Intermezzo No. 2 in A Major, Op. 118 - Andante teneramente (Remastered)DR11 -3.41 dB -17.84 dB 4:36 15-Sonata No. 17 in D Minor, Op. 31, No. 2 "The Tempest":III. Allegretto (Remastered)DR14 -2.73 dB -21.67 dB 4:14 07-Sonata No. 14 in C-Sharp Minor, Op. 27, No. 2 "Moonlight":I. Adagio sostenuto (Remastered)DR13 -4.93 dB -24.13 dB 4:45 18-Sonata No. 8 in C Minor, Op. 13 "Pathétique":II. Adagio cantabile (Remastered)DR13 -0.04 dB -18.21 dB 10:50 10-Concerto No. 4 in G Major for Piano and Orchestra, Op. 58:III. Rondo: Vivace (Remastered)DR13 -0.70 dB -19.71 dB 4:06 09-Piano Sonata No. 11 in A Major, K. 331:III. Alla Turca - Allegretto (Remastered)DR12 -2.64 dB -17.33 dB 1:22 19-6 Little Preludes, BWV 933-938:Praeludium in C Major, BWV 933 (Remastered)DR11 -2.17 dB -16.02 dB 1:30 20-Goldberg Variations, BWV 988 (1981) - Highlights:Variation 30 a 1 Clav. Quodlibet (Remastered)DR13 -11.28 dB -30.64 dB 3:45 21-Goldberg Variations, BWV 988 (1981) - Highlights:Aria da capo (Remastered)DR13 -3.64 dB -22.04 dB 3:29 11-Sonata in D Major, Hob. XVI:51:I. Andante (Remastered)DR15 -2.19 dB -23.33 dB 5:46 17-Fünf Klavierstücke, Op. 3:I. Andante (Remastered)--------------------------------------------------------------------------------
Number of tracks: 21Official DR value: DR12
Samplerate: 44100 HzChannels: 2Bits per sample: 24Bitrate: 1165 kbpsCodec: FLAC================================================================================
[teatrix.ru].t11147.torrent 
Торрент: Зарегистрирован [ 2015-12-07 05:05 ] · 76C5949ECA6BC3C021F471DF9986A319310A0750

Скачать .torrent

Скачать

16 KB

Статус: проверено
Скачан: 1 раз
Размер: 707 MB
terms.php



Быстрый ответ

Имя:

      
Для отправки сообщений необходимо включить JavaScript
Показать сообщения:    

Текущее время: 07-Дек 19:27

Часовой пояс: UTC + 3


Вы можете начинать темы
Вы можете отвечать на сообщения
Вы не можете редактировать свои сообщения
Вы не можете удалять свои сообщения
Вы не можете голосовать в опросах
Вы не можете прикреплять файлы к сообщениям
Вы можете скачивать файлы