[TR24][SM][OF] Bach, Handel, Scarlatti - Gamba Sonatas (Steven Isserlis, Richard Egarr, Robin Michael) - 2015 (Classical)


Статистика раздачи [Обновить пиров]
Размер:  1.2 GB   |    Зарегистрирован:  11 месяцев   |    Скачан:  1 раз

Полного источника не было: 7 месяцев 11 дней

 
   
 
 
 

[Цитировать]

Bach, Handel, Scarlatti - Gamba Sonatas (Steven Isserlis, Richard Egarr)
Год издания: 2015
Жанр: Classical
Издатель (лейбл): Hyperion / CDA68045
Продолжительность: 00:59:47
Наличие сканов: да
Исполнители:
Steven Isserlis
Richard Egarr
Robin Michael

Треклист:

Johann Sebastian Bach, (1685-1750)
Sonata in G major, BWV1027
01. 1: Adagio (03:34)
02. 2: Allegro ma non tanto (03:22)
03. 3: Andante (02:32)
04. 4: Allegro moderato (03:04)
Domenico Scarlatti, (1685-1757)
Sonata in D minor, Kk90
05. 1: Grave (02:59)
06. 2: Allegro (04:29)
07. 3: Largo – Allegro (03:20)
Johann Sebastian Bach, (1685-1750)
Sonata in G minor, BWV1029
08. 1: Vivace (04:57)
09. 2: Adagio (05:01)
10. 3: Allegro (03:49)
George Frideric Handel (1685-1759)
Violin Sonata in G minor, HWV364b
11. 1: Andante larghetto (01:58)
12. 2: Allegro (01:41)
13. 3: Adagio (00:43)
14. 4: Allegro (02:11)
Johann Sebastian Bach, (1685-1750)
Sonata in D major, BWV1028
15. 1: Adagio (01:40)
16. 2: Allegro (03:34)
17. 3: Andante (04:07)
18. 4: Allegro (03:54)
19. Ich ruf' zu dir, Herr Jesu Christ, BWV639 (02:52)
-Контейнер: FLAC (*.flac)
Тип рипа: tracks
Разрядность: 24bit / 96kHz
Количество каналов: 2.0-

Динамический диапазон - DR

foobar2000 1.3.2 / Замер динамического диапазона (DR) 1.1.1Дата отчёта: 2015-09-08 23:32:21
--------------------------------------------------------------------------------Анализ: Steven Isserlis, Richard Egarr / Bach, Handel & Scarlatti: Gamba Sonatas (1-12) Steven Isserlis, Robin Michael, Richard Egarr / Bach, Handel & Scarlatti: Gamba Sonatas (13-19)--------------------------------------------------------------------------------
DR Пики RMS Продолжительность трека--------------------------------------------------------------------------------DR14 -2.79 дБ -24.43 дБ 3:34 1/19-Bach: Sonata in G major, BWV1027 - 1: AdagioDR12 -7.07 дБ -21.61 дБ 3:22 2/19-Bach: Sonata in G major, BWV1027 - 2: Allegro ma non tantoDR11 -10.40 дБ -26.73 дБ 2:32 3/19-Bach: Sonata in G major, BWV1027 - 3: AndanteDR12 -2.57 дБ -19.20 дБ 3:04 4/19-Bach: Sonata in G major, BWV1027 - 4: Allegro moderatoDR13 -3.72 дБ -20.79 дБ 4:57 8/19-Bach: Sonata in G minor, BWV1029 - 1: VivaceDR15 -6.75 дБ -25.70 дБ 5:01 9/19-Bach: Sonata in G minor, BWV1029 - 2: AdagioDR13 -1.60 дБ -19.60 дБ 3:49 10/19-Bach: Sonata in G minor, BWV1029 - 3: AllegroDR12 -10.59 дБ -27.41 дБ 1:40 15/19-Bach: Sonata in D major, BWV1028 - 1: AdagioDR13 -4.40 дБ -21.35 дБ 3:34 16/19-Bach: Sonata in D major, BWV1028 - 2: AllegroDR12 -6.62 дБ -26.33 дБ 4:07 17/19-Bach: Sonata in D major, BWV1028 - 3: AndanteDR13 -6.02 дБ -21.39 дБ 3:54 18/19-Bach: Sonata in D major, BWV1028 - 4: AllegroDR10 -12.39 дБ -27.18 дБ 2:52 19/19-Bach: Ich ruf' zu dir, Herr Jesu Christ, BWV639DR11 -6.61 дБ -21.11 дБ 2:59 5/19-Scarlatti (D): Sonata in D minor, Kk90 - 1: GraveDR12 -1.48 дБ -17.34 дБ 4:29 6/19-Scarlatti (D): Sonata in D minor, Kk90 - 2: AllegroDR12 -3.16 дБ -19.96 дБ 3:20 7/19-Scarlatti (D): Sonata in D minor, Kk90 - 3: Largo – AllegroDR13 -3.80 дБ -21.46 дБ 1:58 11/19-Handel: Violin Sonata in G minor, HWV364b - 1: Andante larghettoDR12 -2.07 дБ -17.91 дБ 1:41 12/19-Handel: Violin Sonata in G minor, HWV364b - 2: AllegroDR11 -7.84 дБ -24.22 дБ 0:43 13/19-Handel: Violin Sonata in G minor, HWV364b - 3: AdagioDR11 -3.07 дБ -18.85 дБ 2:11 14/19-Handel: Violin Sonata in G minor, HWV364b - 4: Allegro--------------------------------------------------------------------------------
Количество треков: 19Реальные значения DR: DR12
Частота: 96000 ГцКаналов: 2Разрядность: 24Битрейт: 2866 кбит/сКодек: FLAC================================================================================
[teatrix.ru].t11148.torrent 
Торрент: Зарегистрирован [ 2015-12-07 05:05 ] · F60CC6987424C36A20A1217028F1C6B482E152B8

Скачать .torrent

Скачать

14 KB

Статус: проверено
Скачан: 1 раз
Размер: 1.2 GB
terms.php



Быстрый ответ

Имя:

      
Для отправки сообщений необходимо включить JavaScript
Показать сообщения:    

Текущее время: 06-Дек 11:15

Часовой пояс: UTC + 3


Вы можете начинать темы
Вы можете отвечать на сообщения
Вы не можете редактировать свои сообщения
Вы не можете удалять свои сообщения
Вы не можете голосовать в опросах
Вы не можете прикреплять файлы к сообщениям
Вы можете скачивать файлы