[TR24][SA][OF] Marco Enrico Bossi, Respighi, Nino Rota, Giacomo Puccini - Serenata Italiana: Intermezzi, Antiche Danze, Concerto per archi,Crisantemi Andante mesto (I Musici) - 2009 (Classical)


Статистика раздачи [Обновить пиров]
Размер:  1.09 GB   |    Зарегистрирован:  11 месяцев   |    Скачан:  0 раз

Полного источника не было: Никогда

 
   
 
 
 

[Цитировать]

Bossi, Respighi, Nino Rota, Giacomo Puccini - Serenata Italiana: Intermezzi, Antiche Danze, Concerto per archi,Crisantemi Andante mesto (I Musici)
Год издания: 2009
Жанр: Classical
Издатель (лейбл): Fonè Records
Продолжительность: 01:03:56
Наличие сканов: да
Исполнители:
I Musici

Треклист:

Marco Enrico Bossi
Intermezzi Goldoniani Op.127
01. I. Preludio e minuetto (06:01)
02. II. Gagliarda (04:02)
03. III. Coprifuoco (05:07)
04. IV. Minuetto e musetta (03:37)
05. V. Serenatina (03:09)
06. VI. Burlesca (03:00)
Respighi
Antiche Danze ed Arie per liuto Terza Suite per archi
07. I. Ignoto Italiana (02:38)
08. II. Giov. Batt. Besardo Aria di corte (07:51)
09. III. Ignoto Siciliana (02:58)
10. IV. Lodovico Roncalli Passacaglia (04:01)
Nino Rota
Concerto per archi
11. I. Preludio (03:33)
12. II. Scherzo (03:56)
13. III. Aria (04:31)
14. IV. Finale (02:58)
Giacomo Puccini
15. Crisantemi Andante mesto (06:34)
-Контейнер: FLAC (*.flac)
Тип рипа: tracks
Разрядность: 24bit / 88,2kHz
Количество каналов: 2.0-

Динамический диапазон - DR

foobar2000 1.3.2 / Замер динамического диапазона (DR) 1.1.1Дата отчёта: 2015-08-31 10:09:21
--------------------------------------------------------------------------------Анализ: I Musici / Serenata Italiana--------------------------------------------------------------------------------
DR Пики RMS Продолжительность трека--------------------------------------------------------------------------------DR14 -0.80 дБ -21.25 дБ 6:01 01-Marco Enrico Bossi - Intermezzi Goldoniani Op.127 I. Preludio e minuettoDR16 -1.33 дБ -22.31 дБ 4:02 02-II. GagliardaDR13 -6.42 дБ -24.94 дБ 5:07 03-III. CoprifuocoDR16 -3.35 дБ -25.38 дБ 3:37 04-IV. Minuetto e musettaDR12 -10.07 дБ -28.69 дБ 3:09 05-V. SerenatinaDR17 -2.05 дБ -22.76 дБ 3:00 06-VI. BurlescaDR13 -10.69 дБ -27.15 дБ 2:38 07-Respighi - Antiche Danze ed Arie per liuto Terza Suite per archi I. Ignoto ItalianaDR15 -3.18 дБ -24.51 дБ 7:51 08-II. Giov. Batt. Besardo Aria di corteDR14 -2.96 дБ -23.57 дБ 2:58 09-III. Ignoto SicilianaDR15 -0.90 дБ -18.81 дБ 4:01 10-IV. Lodovico Roncalli PassacagliaDR13 -2.37 дБ -20.82 дБ 3:33 11-Nino Rota - Concerto per archi I. PreludioDR14 -2.22 дБ -22.54 дБ 3:56 12-II. ScherzoDR12 -3.07 дБ -22.20 дБ 4:31 13-III. AriaDR13 -1.15 дБ -19.49 дБ 2:58 14-IV. FinaleDR16 -1.47 дБ -23.43 дБ 6:34 15-Giacomo Puccini - Crisantemi Andante mesto--------------------------------------------------------------------------------
Количество треков: 15Реальные значения DR: DR14
Частота: 88200 ГцКаналов: 2Разрядность: 24Битрейт: 2418 кбит/сКодек: FLAC================================================================================
[teatrix.ru].t11149.torrent 
Торрент: Зарегистрирован [ 2015-12-07 05:05 ] · D81624AAE13CB01E6205A036A828A927B845C54F

Скачать .torrent

Скачать

13 KB

Статус: проверено
Скачан: 0 раз
Размер: 1.09 GB
terms.php



Быстрый ответ

Имя:

      
Для отправки сообщений необходимо включить JavaScript
Показать сообщения:    

Текущее время: 04-Дек 09:03

Часовой пояс: UTC + 3


Вы можете начинать темы
Вы можете отвечать на сообщения
Вы не можете редактировать свои сообщения
Вы не можете удалять свои сообщения
Вы не можете голосовать в опросах
Вы не можете прикреплять файлы к сообщениям
Вы можете скачивать файлы