[TR24][OF] Giuseppe Verdi - La Traviata [1953] (Maria Callas, Francesco Albanese, Ugo Savarese, Ede Marietti Gandolfo, Mariano Caruso, Ines Marietti etc.; Orchestra Sinfonica di Torino della RAI, Gabriele Santini) - 2014 (Classical, Opera)


Статистика раздачи [Обновить пиров]
Размер:  1.09 GB   |    Зарегистрирован:  1 год   |    Скачан:  0 раз

Полного источника не было: Никогда

 
   
 
 
 

[Цитировать]

MARIA CALLAS
La Traviata
by Giuseppe Verdi-Год издания: 2014 | Жанр: Classical, Opera
Издатель: Warner Classics | Продолжительность: 02:02:40
Наличие сканов: Sleeve, Digital Booklet
Релизер: Bhimsen- -Контейнер: FLAC (*.flac) | Тип рипа: tracks
Разрядность: 24bit / 96kHz | Количество каналов: 2.0
-
Треклист
Giuseppe Verdi (1813-1901)
La Traviata (Opera in three acts)
Prelude
01. Prelude (4:37)
Act 1
02. "Dell'invito trascorsa e gia l'ora" (Chorus, Violetta, Flora, Marquis, Gaston, Baron) (5:12)
03. "Libiamo ne'lieti calici" (Alfredo, Violetta, Chorus) (3:12)
04. "Che e cio?" (Chorus, Violetta, Alfredo) (2:37)
05. "Un dí felice, eterea" (Alfredo, Violetta) (3:31)
06. "Ebben? Che diavol fate?" (Gastone, Violetta, Alfredo) (1:30)
07. "Si ridesta in ciel l'aurora" (Flora, Gastone, Baron, Doctor, Marquis, Chorus) (1:51)
08. "E strano! E strano!" (Violetta) (1:20)
09. "Ah fors'e lui" (Violetta) (3:01)
10. "Follie! Follie! Delirio vano e questo!" (Violetta, Alfredo) (1:06)
11. "Sempre libera" (Violetta, Alfredo) (4:02)
Act 2
12. "Lunge da lei per me non v'ha diletto!...." (Alfredo, Annina) (2:00)
13. "De'miei bollenti spiriti" (Alfredo, Annina) (2:09)
14. "Annina, donde vieni?....O mio rimorso!" (Alfredo, Annina, Violetta, Germont) (4:36)
15. "Pura siccome un angelo" (Violetta, Germont) (1:47)
16. "Non sapete quale affetto" (Violetta, Germont) (2:22)
17. "Un di, quando le veneri" (Violetta, Germont) (2:45)
18. "Ah! Dite alla giovane" (Violetta, Germont) (4:25)
19. "Imponete...Non amarlo ditegli" (Violetta, Germont) (1:11)
20. "Morrò La mia memoria" (Germont, Violetta) (3:30)
21. "Dammi tu forza, o cielo!" (Violetta, Annina, Alfredo) (1:47)
22. "Che fai?...Nulla" (Violetta, Annina, Alfredo) (2:33)
23. "Ah, vive sol quel core" (Alfredo, Giuseppe, Germont) (2:24)
24. "Di Provenza il mar, il suol" (Alfredo, Giuseppe, Germont) (4:51)
25. "Avram lieta di maschere la notte" (Flora, Marquis, Doctor) (1:03)
26. "Noi siamo zingarelle" (Chorus, Flora, Marquis, Doctor) (2:53)
27. "Di Madride noi siam mattadori" (Chorus, Gastone, Flora, Doctor, Marquis) (3:05)
28. "Alfredo! Voi!" (Flora, Gastone, Doctor, Marquis, Chorus, Alfredo, Violetta, Baron) (4:43)
29. "Invitato a qui seguirmi" (Violetta, Alfredo, Chorus) (2:36)
30. "Ogni suo aver tal femmina" (Alfredo, Gaston, Baron, Doctor, Marquis, Chorus) (1:38)
31. "Di sprezzo degno sé stesso rende" (Germont, Alfredo, Flora, Gaston, Baron, Doctor, Marquis, Chorus) (1:53)
32. "Alfredo, Alfredo, di questo core" (Violetta, Flora, Germont, Gaston, Baron, Doctor, Marquis, Chorus, Alfredo) (4:34)
Act 3
33. Prelude (4:40)
34. "Annina?...Comandate?" (Violetta, Annina, Doctor) (4:38)
35. "Teneste la promessa....Attendo - ne a me giungon mai!....Addio, del passato" (Violetta, Annina, Doctor) (1:52)
36. "Addio, del passato" (Violetta) (3:27)
37. "Largo al quadrupede" (Chorus) (0:46)
38. "Signore!...Che t'accadde?" (Annina, Violetta, Alfredo) (2:01)
39. "Parigi, o cara, noi lasceremo" (Annina, Violetta, Alfredo) (4:09)
40. "Ah, non piu, a un tempio" (Annina, Violetta, Alfredo) (1:58)
41. "Ah! gran Dio! Morir sì giovine" (Violetta, Alfredo) (1:49)
42. "Ah Violetta!...Voi, signor!" (Germont, Violetta, Alfredo, Annina, Doctor) (2:00)
43. "Prendi, quest'e l'immagine" (Germont, Violetta, Alfredo, Annina, Doctor) (1:00)
44. "Se una pudica vergine" (Violetta, Germont, Alfredo, Annina, Doctor) (3:37)

О релизе


Violetta, the most complex and fully-rounded of Verdi’s heroines, was one of the roles that defined Maria Callas as an artist. She performed it more than 60 times between 1951 and 1958, most famously in Luchino Visconti’s production at La Scala in 1955/56. It is often said that the role demands a different kind of voice for each act, and, when she made this recording for the Cetra label in 1953, Callas offered youthful, ringing power complemented by coloratura prowess and the capacity for great delicacy.More than 60 years on, her characterisation, in its subtlety and truth, still sets the standard for La traviata.
Maria Callas, soprano (Violetta Valéry)
Francesco Albanese, tenor (Alfredo Germont)
Ugo Savarese, baritone (Giorgio Germont)
Ede Marietti Gandolfo, mezzo-soprano (Flora Bervoix)
Ines Marietti, soprano (Annina)
Mariano Caruso, tenor (Gastone)
Alberto Albertini, baritone (Il barone Douphol)
Mario Zorgniotti, bass (Il marchese D’Obigny and Il dottore Grenvil)
Tommaso Soley, tenor (Giuseppe)
Coro Cetra, chorus
Orchestra Sinfonica di Torino della RAI, orchestra
Gabriele Santini, conductor
Recorded in September 1953 at Auditorium RAI in Turin, Italy.

ОтчётыДинамический диапазон

foobar2000 1.3.8 / Dynamic Range Meter 1.1.1log date: 2015-08-01 21:38:55
--------------------------------------------------------------------------------Analyzed: Ede Marietti Gandolfo, Orchestra Sinfonica di Torino della RAI & Gabriele Santini / Verdi: La Traviata (1953) (1-4) Francesco Albanese, Orchestra Sinfonica di Torino della RAI & Gabriele Santini / Verdi: La Traviata (1953) (5-7) Francesco Albanese, Ugo Savarese, Orchestra Sinfonica di Torino della RAI & Gabriele Santini / Verdi: La Traviata (1953) (8) Maria Callas, Ede Marietti Gandolfo, Orchestra Sinfonica di Torino della RAI & Gabriele Santini / Verdi: La Traviata (1953) (9) Maria Callas, Francesco Albanese, Ede Marietti Gandolfo, Orchestra Sinfonica di Torino della RAI & Gabriele Santini / Verdi: La Traviata (1953) (10) Maria Callas, Francesco Albanese, Francesco Albanese, Orchestra Sinfonica di Torino della RAI & Gabriele Santini / Verdi: La Traviata (1953) (11-13) Maria Callas, Francesco Albanese, Ines Marietti, Orchestra Sinfonica di Torino della RAI & Gabriele Santini / Verdi: La Traviata (1953) (14-15) Maria Callas, Francesco Albanese, Orchestra Sinfonica di Torino della RAI & Gabriele Santini / Verdi: La Traviata (1953) (16-26) Maria Callas, Francesco Albanese, Ugo Savarese, Ede Marietti Gandolfo, Orchestra Sinfonica di Torino della RAI & Gabriele Santini / Verdi: La Traviata (1953) (27) Maria Callas, Francesco Albanese, Ugo Savarese, Francesco Albanese, Orchestra Sinfonica di Torino della RAI & Gabriele Santini / Verdi: La Traviata (1953) (28-30) Maria Callas, Orchestra Sinfonica di Torino della RAI & Gabriele Santini / Verdi: La Traviata (1953) (31-33) Maria Callas, Ugo Savarese, Orchestra Sinfonica di Torino della RAI & Gabriele Santini / Verdi: La Traviata (1953) (34-39) Orchestra Sinfonica di Torino della RAI & Gabriele Santini / Verdi: La Traviata (1953) (40-42) Ugo Savarese, Orchestra Sinfonica di Torino della RAI & Gabriele Santini / Verdi: La Traviata (1953) (43-44)--------------------------------------------------------------------------------
DR Peak RMS Duration Track--------------------------------------------------------------------------------DR10 -0.34 dB -15.55 dB 1:51 07-La traviata, Act 1: "Si ridesta in ciel l'aurora" (Flora, Gastone, Baron, Doctor, Marquis, Chorus)DR13 -2.61 dB -20.53 dB 1:03 25-La traviata, Act 2: "Avram lieta di maschere la notte" (Flora, Marquis, Doctor)DR12 -0.84 dB -18.43 dB 2:53 26-La traviata, Act 2: "Noi siamo zingarelle" (Chorus, Flora, Marquis, Doctor)DR11 -1.62 dB -17.26 dB 3:05 27-La traviata, Act 2: "Di Madride noi siam mattadori" (Chorus, Gastone, Flora, Doctor, Marquis)DR10 -5.09 dB -20.81 dB 2:00 12-La traviata, Act 2: "Lunge da lei per me non v'ha diletto!...." (Alfredo, Annina)DR9 -4.94 dB -19.07 dB 2:09 13-La traviata, Act 2: "De'miei bollenti spiriti" (Alfredo, Annina)DR9 -3.28 dB -15.50 dB 1:38 30-La traviata, Act 2: "Ogni suo aver tal femmina" (Alfredo, Gaston, Baron, Doctor, Marquis, Chorus)DR10 -4.37 dB -19.70 dB 1:53 31-La traviata, Act 2: "Di sprezzo degno sé stesso rende" (Germont, Alfredo, Flora, Gaston, Baron, Doctor, Marquis, Chorus)DR13 -0.30 dB -18.60 dB 5:12 02-La traviata, Act 1: "Dell'invito trascorsa e gia l'ora" (Chorus, Violetta, Flora, Marquis, Gaston, Baron)DR9 -1.71 dB -16.53 dB 4:43 28-La traviata, Act 2: "Alfredo! Voi!" (Flora, Gastone, Doctor, Marquis, Chorus, Alfredo, Violetta, Baron)DR8 -0.54 dB -14.65 dB 2:01 38-La traviata, Act 3: "Signore!...Che t'accadde?" (Annina, Violetta, Alfredo)DR11 -3.59 dB -19.27 dB 4:09 39-La traviata, Act 3: "Parigi, o cara, noi lasceremo" (Annina, Violetta, Alfredo)DR9 -2.86 dB -17.41 dB 1:58 40-La traviata, Act 3: "Ah, non piu, a un tempio" (Annina, Violetta, Alfredo)DR12 -14.86 dB -33.30 dB 1:47 21-La traviata, Act 2: "Dammi tu forza, o cielo!" (Violetta, Annina, Alfredo)DR8 -3.95 dB -17.78 dB 2:33 22-La traviata, Act 2: "Che fai?...Nulla" (Violetta, Annina, Alfredo)DR11 -2.37 dB -17.74 dB 3:12 03-La traviata, Act 1: "Libiamo ne'lieti calici" (Alfredo, Violetta, Chorus)DR14 -4.42 dB -23.29 dB 2:37 04-La traviata, Act 1: "Che e cio?" (Chorus, Violetta, Alfredo)DR11 -2.42 dB -18.74 dB 3:31 05-La traviata, Act 1: "Un dí felice, eterea" (Alfredo, Violetta)DR9 -4.80 dB -19.49 dB 1:30 06-La traviata, Act 1: "Ebben? Che diavol fate?" (Gastone, Violetta, Alfredo)DR10 -3.82 dB -17.94 dB 1:06 10-La traviata, Act 1: "Follie! Follie! Delirio vano e questo!" (Violetta, Alfredo)DR8 -4.51 dB -17.41 dB 4:02 11-La traviata, Act 1: "Sempre libera" (Violetta, Alfredo)DR11 -5.53 dB -21.66 dB 4:36 14-La traviata, Act 2: "Annina, donde vieni?....O mio rimorso!" (Alfredo, Annina, Violetta, Germont)DR10 -3.58 dB -18.27 dB 2:36 29-La traviata, Act 2: "Invitato a qui seguirmi" (Violetta, Alfredo, Chorus)DR15 -6.90 dB -27.92 dB 4:38 34-La traviata, Act 3: "Annina?...Comandate?" (Violetta, Annina, Doctor)DR12 -3.75 dB -24.32 dB 1:52 35-La traviata, Act 3: "Teneste la promessa....Attendo - ne a me giungon mai!....Addio, del passato" (Violetta, Annina, Doctor)DR8 -0.65 dB -13.21 dB 1:49 41-La traviata, Act 3: "Ah! gran Dio! Morir sì giovine" (Violetta, Alfredo)DR9 -3.27 dB -17.42 dB 4:34 32-La traviata, Act 2: "Alfredo, Alfredo, di questo core" (Violetta, Flora, Germont, Gaston, Baron, Doctor, Marquis, Chorus, Alfredo)DR11 -2.94 dB -19.64 dB 2:00 42-La traviata, Act 3: "Ah Violetta!...Voi, signor!" (Germont, Violetta, Alfredo, Annina, Doctor)DR9 -5.14 dB -20.05 dB 1:00 43-La traviata, Act 3: "Prendi, quest'e l'immagine" (Germont, Violetta, Alfredo, Annina, Doctor)DR11 -0.30 dB -16.22 dB 3:37 44-La traviata, Act 3: "Se una pudica vergine" (Violetta, Germont, Alfredo, Annina, Doctor)DR9 -6.62 dB -20.64 dB 1:20 08-La traviata, Act 1: "E strano! E strano!" (Violetta)DR8 -6.08 dB -19.73 dB 3:01 09-La traviata, Act 1: "Ah fors'e lui" (Violetta)DR10 -4.20 dB -20.37 dB 3:27 36-La traviata, Act 3: "Addio, del passato" (Violetta)DR10 -3.80 dB -19.17 dB 1:47 15-La traviata, Act 2: "Pura siccome un angelo" (Violetta, Germont)DR9 -2.79 dB -17.41 dB 2:22 16-La traviata, Act 2: "Non sapete quale affetto" (Violetta, Germont)DR9 -4.79 dB -17.86 dB 2:45 17-La traviata, Act 2: "Un di, quando le veneri" (Violetta, Germont)DR8 -5.29 dB -18.86 dB 4:25 18-La traviata, Act 2: "Ah! Dite alla giovane" (Violetta, Germont)DR8 -3.88 dB -17.46 dB 1:11 19-La traviata, Act 2: "Imponete...Non amarlo ditegli" (Violetta, Germont)DR8 -4.03 dB -16.75 dB 3:30 20-La traviata, Act 2: "Morrò La mia memoria" (Germont, Violetta)DR12 -5.36 dB -23.21 dB 4:37 01-La traviata: PreludeDR14 -3.88 dB -24.05 dB 4:40 33-La traviata, Act 3: PreludeDR13 -4.66 dB -22.71 dB 0:46 37-La traviata, Act 3: "Largo al quadrupede" (Chorus)DR13 -2.93 dB -22.03 dB 2:24 23-La traviata, Act 2: "Ah, vive sol quel core" (Alfredo, Giuseppe, Germont)DR11 -3.46 dB -20.92 dB 4:51 24-La traviata, Act 2: "Di Provenza il mar, il suol" (Alfredo, Giuseppe, Germont)--------------------------------------------------------------------------------
Number of tracks: 44Official DR value: DR10
Samplerate: 96000 HzChannels: 2Bits per sample: 24Bitrate: 1232 kbpsCodec: FLAC================================================================================

Скриншот спектра частот

Доп. информация

При скачивании, если необходимо, переименуйте папку, в которой будет находиться альбомБольшая просьба к скачавшим поддерживать раздачу! Помогайте другим, ведь вам тоже может понадобиться помощь!Не забываем говорить "Спасибо"!Комментарии приветствуются!
Maria Callas Hi-Res
[teatrix.ru].t11150.torrent 
Торрент: Зарегистрирован [ 2015-12-07 05:05 ] · C2137968C99A129941E1592B86E8E6E9FB891978

Скачать .torrent

Скачать

15 KB

Статус: проверено
Скачан: 0 раз
Размер: 1.09 GB
terms.php



Быстрый ответ

Имя:

      
Для отправки сообщений необходимо включить JavaScript
Показать сообщения:    

Текущее время: 10-Дек 19:43

Часовой пояс: UTC + 3


Вы можете начинать темы
Вы можете отвечать на сообщения
Вы не можете редактировать свои сообщения
Вы не можете удалять свои сообщения
Вы не можете голосовать в опросах
Вы не можете прикреплять файлы к сообщениям
Вы можете скачивать файлы